<?xml version="1.0" standalone="no"?>
<!DOCTYPE svg PUBLIC "-//W3C//DTD SVG 1.1//EN" "http://www.w3.org/Graphics/SVG/1.1/DTD/svg11.dtd">
<svg xmlns="http://www.w3.org/2000/svg">
<defs >
<font id="Merriweather" horiz-adv-x="1242" ><font-face
    font-family="Merriweather Light"
    units-per-em="2048"
    panose-1="0 0 4 0 0 0 0 0 0 0"
    ascent="2014"
    descent="-560"
    alphabetic="0" />
<glyph unicode=" " glyph-name="space" horiz-adv-x="485" />
<glyph unicode="!" glyph-name="exclam" horiz-adv-x="686" d="M607 1778L378 488H272L421 1778H607ZM335 210T357 187T380 125Q380 112 379 105Q371 49 334 16T250 -18Q212 -18 189 5T166 70Q166 82 167 88Q174 141 209 175T289 210Q335 210 357 187Z" />
<glyph unicode="&quot;" glyph-name="quotedbl" horiz-adv-x="1003" d="M529 1687L376 966H269L357 1687H529ZM1008 1687L855 966H748L836 1687H1008Z" />
<glyph unicode="#" glyph-name="numbersign" horiz-adv-x="1405" d="M111 365L117 468H341L413 922H191L197 1025H429L482 1357H608L557 1025H945L1001 1357H1128L1074 1025H1306L1300 922H1058L985 468H1214L1208 365H969L913 0H789L842 365H452L390 0H266L325
365H111ZM930 922H541L468 468H857L930 922Z" />
<glyph unicode="$" glyph-name="dollar" horiz-adv-x="1205" d="M246 343L256 140Q302 103 381 83T538 62Q627 62 709 94T843 193T896 362Q896 442 857 501T763 601T612 699L564 728Q462 788 400 834T293 951T249 1117Q249 1237 307 1329T465 1476T686 1540L714
1721H852L823 1538Q921 1530 994 1507T1106 1457L1064 1212H974L952 1394Q916 1420 848 1437T703 1455Q636 1455 564 1428T440 1336T388 1170Q388 1095 426 1038T520 942T668 849L697 833L716 822Q821 760 885 712T994 593T1039 427Q1039 298 977 201T808 47T569
-20L535 -230H398L432 -20Q322 -11 230 14T106 65L149 343H246Z" />
<glyph unicode="%" glyph-name="percent" horiz-adv-x="1911" d="M1482 1530L535 0H413L1360 1530H1482ZM203 1161T256 1258T404 1416T613 1477Q753 1477 820 1399T887 1185Q887 1075 836 974T692 810T479 747Q391 747 329 787T235 896T203 1055Q203 1161 256
1258ZM757 1283T717 1341T592 1400Q510 1400 450 1347T359 1213T327 1057Q327 951 371 888T499 825Q581 825 639 880T727 1018T757 1179Q757 1283 717 1341ZM1591 799T1658 720T1726 504Q1726 393 1675 292T1529 127T1314 64Q1225 64 1163 104T1068 214T1036 374Q1036
480 1090 578T1239 738T1449 799Q1591 799 1658 720ZM1417 147T1474 202T1560 339T1589 498Q1589 601 1550 659T1428 717Q1348 717 1288 664T1197 532T1166 376Q1166 271 1209 209T1336 147Q1417 147 1474 202Z" />
<glyph unicode="&amp;" glyph-name="ampersand" horiz-adv-x="1551" d="M891 783T928 796T1014 810Q1063 810 1143 797Q1177 792 1214 788T1285 784Q1373 784 1416 823T1473 955H1533Q1529 810 1480 736T1316 662Q1278 662 1239 668Q1247 631 1247 586Q1247 454
1202 347T1071 160Q1139 110 1204 92Q1243 80 1286 74T1367 69L1359 -1Q1308 -13 1272 -16T1195 -20Q1128 -20 1065 3T948 72Q866 28 769 6T563 -17Q429 -17 315 24T131 151T61 366Q61 460 107 533T229 661T415 774Q376 862 349 967T322 1153Q322 1271 379 1361T537
1500T762 1549Q875 1549 946 1509T1047 1406T1078 1269Q1078 1166 1019 1086T875 950T644 814L573 775Q665 610 776 465T1008 213Q1061 272 1085 356T1109 551Q1109 623 1086 690Q1051 693 1010 693Q973 693 936 683T877 660V768Q891 783 928 796ZM665 901T745
955T877 1082T929 1253Q929 1342 887 1404T742 1466Q657 1466 593 1429T494 1325T459 1173Q459 1084 483 996T540 838Q665 901 745 955ZM786 222T710 314T578 493T451 702Q339 630 278 551T216 369Q216 226 313 149T577 72Q768 72 888 126Q786 222 710 314Z" />
<glyph unicode="&apos;" glyph-name="quotesingle" horiz-adv-x="524" d="M519 1687L366 966H259L347 1687H519Z" />
<glyph unicode="(" glyph-name="parenleft" horiz-adv-x="854" d="M253 978T373 1197T625 1556T827 1734L894 1686Q832 1647 726 1522T520 1198T380 756Q361 625 361 504Q361 299 409 136T521 -129T639 -275L557 -326H543Q487 -288 409 -187T267 90T203 498Q203
602 218 717Q253 978 373 1197Z" />
<glyph unicode=")" glyph-name="parenright" horiz-adv-x="854" d="M622 450T502 231T250 -128T48 -306L-19 -258Q43 -219 149 -94T355 230T495 672Q514 803 514 924Q514 1129 466 1292T354 1557T236 1703L318 1754H332Q388 1716 466 1615T608 1338T672 930Q672
827 657 711Q622 450 502 231Z" />
<glyph unicode="*" glyph-name="asterisk" horiz-adv-x="1366" d="M603 1099L729 1147L615 1197L323 1340L411 1473L663 1272L758 1192L750 1319L748 1653L894 1652L834 1319L807 1192L918 1272L1212 1469L1271 1335L952 1196L827 1146L937 1098L1222 956L1134
824L888 1023L798 1104L803 981L806 647L659 648L720 981L748 1104L637 1024L345 829L285 963L603 1099Z" />
<glyph unicode="+" glyph-name="plus" horiz-adv-x="1366" d="M640 715L479 709H254L268 836H494L652 827L668 1005L696 1235H832L806 1005L776 827L910 836H1165L1152 709H896L765 715Q764 694 758 626Q752 572 750 536L721 295H583L612 536L640 715Z" />
<glyph unicode="," glyph-name="comma" horiz-adv-x="570" d="M227 265Q310 232 351 151T393 -27Q393 -135 346 -231T218 -397T42 -501L-6 -438L-3 -420Q90 -374 157 -284T224 -69Q224 4 190 59T108 132V167L227 265Z" />
<glyph unicode="-" glyph-name="hyphen" horiz-adv-x="1271" d="M1085 836L1072 709H239L253 836H1085Z" />
<glyph unicode="." glyph-name="period" horiz-adv-x="526" d="M285 210T307 187T330 125Q330 112 329 105Q321 49 284 16T200 -18Q162 -18 139 5T116 70Q116 82 117 88Q124 141 159 175T239 210Q285 210 307 187Z" />
<glyph unicode="/" glyph-name="slash" horiz-adv-x="854" d="M748 1597H881L18 -362H-114L748 1597Z" />
<glyph unicode="0" glyph-name="zero" horiz-adv-x="1278" d="M128 647T211 810T436 1068T744 1162Q1160 1162 1160 697Q1160 510 1080 346T860 83T549 -16Q403 -16 309 46T171 212T128 450Q128 647 211 810ZM1003 867T934 970T718 1074Q576 1074 478 981T333
746T285 462Q285 353 314 265T406 125T565 73Q701 73 800 162T951 391T1003 682Q1003 867 934 970Z" />
<glyph unicode="1" glyph-name="one" horiz-adv-x="920" d="M349 91L477 966L444 955Q369 930 308 913T184 882L173 960Q269 981 381 1039T589 1162L656 1143L503 92L739 70L732 0H119L126 70L349 91Z" />
<glyph unicode="2" glyph-name="two" horiz-adv-x="1188" d="M381 230T601 422T821 802Q821 1052 568 1052Q461 1052 376 1007T207 892L166 964Q241 1042 360 1102T624 1162Q820 1162 904 1070T989 832Q989 637 774 445T246 93L883 131L975 305L1053 276L974 0H63L50
67Q381 230 601 422Z" />
<glyph unicode="3" glyph-name="three" horiz-adv-x="1083" d="M330 -234T458 -186T666 -47T745 162Q745 283 672 350T441 419Q427 413 315 384L264 371L275 466Q486 514 623 612T761 851Q761 951 701 1001T536 1051Q432 1051 349 1015T181 917L148 998Q186 1035
253 1072T411 1136T602 1162Q691 1162 765 1132T884 1038T929 881Q929 794 878 716T742 577T561 482Q749 487 832 406T915 190Q915 42 811 -76T541 -261T198 -327Q127 -327 31 -315L42 -223Q135 -234 186 -234Q330 -234 458 -186Z" />
<glyph unicode="4" glyph-name="four" horiz-adv-x="1254" d="M180 267T368 581T738 1256H769L882 1184Q801 1030 662 812T324 296Q314 279 305 267T290 244Q279 227 212 141L167 82L738 103L795 545L943 591L882 115L1142 127L1126 0H867L820 -375H675L724 0H67L39
76Q180 267 368 581Z" />
<glyph unicode="5" glyph-name="five" horiz-adv-x="1110" d="M298 -264T445 -203T684 -35T776 204Q776 347 705 416T480 486Q413 486 342 467T191 417L152 449L318 1146H920L939 1162H1045L999 1011H421L295 531Q347 551 420 565T556 580Q670 580 759 541T899
421T951 220Q951 48 834 -80T536 -277T170 -346Q89 -346 40 -329L50 -255Q94 -264 142 -264Q298 -264 445 -203Z" />
<glyph unicode="6" glyph-name="six" horiz-adv-x="1252" d="M136 707T247 936T553 1334T990 1570L1013 1501Q858 1446 723 1340T489 1097T340 814Q406 881 502 929T733 977Q860 977 944 925T1067 786T1107 592Q1107 436 1036 295T838 67T548 -21Q415 -21 323
43T183 218T136 468Q136 707 247 936ZM946 705T881 791T697 878Q595 878 520 847T404 778T323 695Q293 567 293 454Q293 277 366 172T583 67Q701 67 783 141T905 329T946 554Q946 705 881 791Z" />
<glyph unicode="7" glyph-name="seven" horiz-adv-x="1096" d="M279 1024L197 813L98 817L161 1146H1053L1080 1109L469 -315L310 -262L960 1024H279Z" />
<glyph unicode="8" glyph-name="eight" horiz-adv-x="1203" d="M427 887T360 976T293 1173Q293 1285 352 1371T516 1506T751 1554Q858 1554 942 1515T1075 1403T1123 1230Q1123 1095 1026 992T753 807Q1054 595 1054 389Q1054 263 982 171T793 29T543 -20Q435
-20 338 18T178 137T116 334Q116 489 231 607T531 805Q427 887 360 976ZM973 1300T942 1358T856 1445T735 1474Q651 1474 583 1437T476 1335T437 1186Q437 1118 471 1060T558 954T689 849Q820 905 896 1001T973 1218Q973 1300 942 1358ZM656 66T732 104T854 211T900
368Q900 439 859 504T750 628T583 754Q503 719 434 661T322 526T277 361Q277 275 311 208T411 104T566 66Q656 66 732 104Z" />
<glyph unicode="9" glyph-name="nine" horiz-adv-x="1246" d="M1103 434T992 203T686 -196T249 -432L226 -362Q379 -308 515 -201T752 44T904 328Q838 259 738 211T506 162Q379 162 295 219T172 367T133 562Q133 706 199 844T393 1071T691 1160Q824 1160 916 1098T1056
926T1103 682Q1103 434 992 203ZM286 495T318 419T408 302T542 261Q681 261 768 317T916 445Q930 498 938 565T946 696Q946 805 914 890T816 1024T656 1073Q539 1073 455 999T329 815T286 596Q286 495 318 419Z" />
<glyph unicode=":" glyph-name="colon" horiz-adv-x="526" d="M358 1019T380 996T403 934Q403 921 402 914Q394 858 357 825T273 791Q235 791 212 814T189 879Q189 891 190 897Q197 950 232 984T312 1019Q358 1019 380 996ZM521 210T543 187T566 125Q566 112 565
105Q557 49 520 16T436 -18Q398 -18 375 5T352 70Q352 82 353 88Q360 141 395 175T475 210Q521 210 543 187Z" />
<glyph unicode=";" glyph-name="semicolon" horiz-adv-x="526" d="M469 265Q552 232 593 151T635 -27Q635 -135 588 -231T460 -397T284 -501L236 -438L239 -420Q332 -374 399 -284T466 -69Q466 4 432 59T350 132V167L469 265ZM360 1019T382 996T405 934Q405 921
404 914Q396 858 359 825T275 791Q237 791 214 814T191 879Q191 891 192 897Q199 950 234 984T314 1019Q360 1019 382 996Z" />
<glyph unicode="&lt;" glyph-name="less" horiz-adv-x="1368" d="M1220 1324L1202 1168L354 751L1103 333L1085 176L198 699L210 802L1220 1324Z" />
<glyph unicode="=" glyph-name="equal" horiz-adv-x="1063" d="M981 990L967 865H153L166 990H981ZM911 480L897 355H83L96 480H911Z" />
<glyph unicode="&gt;" glyph-name="greater" horiz-adv-x="1368" d="M216 179L234 335L1082 752L333 1170L351 1327L1238 804L1226 701L216 179Z" />
<glyph unicode="?" glyph-name="question" horiz-adv-x="1020" d="M274 773T309 822T406 912T563 1002Q633 1036 675 1060T756 1120T826 1205Q854 1266 854 1323Q854 1434 811 1516T685 1642T484 1686Q425 1686 371 1676T279 1648L299 1759Q323 1781 390 1797T525
1813Q775 1813 879 1694T984 1394Q984 1332 968 1275T923 1171Q893 1119 849 1077T759 1005T643 933L622 921Q548 878 507 848T439 778T412 686Q412 638 421 580T442 487L347 447L333 448Q310 486 292 564T274 713Q274 773 309 822ZM510 210T532 188T555 126Q555
83 537 50T490 0T426 -18Q388 -18 365 4T342 68Q342 81 343 88Q350 141 385 175T464 210Q510 210 532 188Z" />
<glyph unicode="@" glyph-name="at" horiz-adv-x="1969" d="M1401 1545T1552 1469T1785 1250T1868 909Q1868 644 1777 442T1547 130T1272 21Q1228 21 1207 45T1179 108T1173 209Q1173 247 1185 327T1220 497Q1141 301 1035 154T823 7Q752 7 689 53T585 194T545
428Q545 584 605 737T787 991T1085 1092Q1137 1092 1205 1078T1313 1038L1441 1063Q1410 946 1378 768T1328 439Q1310 279 1310 215Q1310 198 1311 192Q1313 168 1321 153T1351 137Q1441 137 1535 239T1690 507T1751 853Q1751 1058 1669 1189T1447 1380T1134 1440Q866
1440 662 1295T347 910T236 392Q236 25 411 -146T901 -318Q1006 -318 1114 -294T1274 -242L1299 -312Q1229 -365 1119 -396T883 -428Q647 -428 477 -344T213 -90T120 334Q120 687 265 963T657 1392T1199 1545Q1401 1545 1552 1469ZM915 137T998 256T1157 556T1274
911Q1245 949 1185 970T1073 992Q934 992 846 910T720 704T681 444Q681 349 702 280T761 174T850 137Q915 137 998 256Z" />
<glyph unicode="A" glyph-name="A" horiz-adv-x="1342" d="M888 1522L1150 96L1319 69L1314 0H811L815 69L1000 93L938 460H347L173 94L356 69L351 0H-120L-112 69L27 93L735 1522H888ZM922 557L802 1273L789 1391L393 557H922Z" />
<glyph unicode="B" glyph-name="B" horiz-adv-x="1278" d="M184 94L351 1422L215 1441L224 1522H463Q501 1523 584 1529Q688 1537 743 1537Q891 1537 990 1494T1136 1379T1186 1218Q1189 1059 1106 954T871 806Q956 795 1026 752T1137 639T1178 480Q1178 310 1088
199T847 37T510 -14Q480 -14 434 -11T371 -7Q289 0 243 0H27L34 69L184 94ZM427 840Q451 839 504 839L664 840Q771 840 855 879T988 997T1037 1192Q1037 1319 959 1381T708 1443Q673 1443 606 1440T500 1431L427 840ZM335 103Q361 94 431 89T544 84Q760 84 888
174T1017 464Q1017 601 934 669T693 738Q501 738 413 733L335 103Z" />
<glyph unicode="C" glyph-name="C" horiz-adv-x="1232" d="M943 1538T1022 1525T1178 1490L1221 1477L1160 1114H1070L1062 1389Q1022 1414 965 1428T809 1442Q628 1442 502 1325T312 1027T249 663Q249 513 288 381T415 164T639 79Q725 79 815 105T943 178L1006
402L1099 401L1058 70L1027 60Q924 27 827 6T610 -16Q431 -16 314 80T144 327T90 650Q90 910 191 1112T460 1426T826 1538Q943 1538 1022 1525Z" />
<glyph unicode="D" glyph-name="D" horiz-adv-x="1421" d="M183 94L351 1422L215 1441L224 1522H488Q532 1522 622 1530Q722 1538 777 1538Q1075 1538 1213 1371T1352 905Q1352 645 1254 433T978 99T573 -16Q509 -14 460 -9Q425 -6 358 -3T250 0H26L33 69L183
94ZM335 106Q395 95 479 87T615 79Q806 90 938 208T1135 513T1198 909Q1195 1100 1148 1217T1000 1389T733 1444Q684 1444 620 1439T501 1425L335 106Z" />
<glyph unicode="E" glyph-name="E" horiz-adv-x="1222" d="M184 93L350 1422L214 1441L223 1522H1141L1134 1212H1051L1017 1424L505 1435L429 840L910 846L901 721L419 734L334 94L955 113L1066 341L1147 316L1058 0H26L33 69L184 93Z" />
<glyph unicode="F" glyph-name="F" horiz-adv-x="1150" d="M184 94L350 1422L214 1441L223 1522H1179L1161 1212H1067L1047 1419L502 1434L428 838L936 846L926 718L419 731L334 96L573 70L566 0H27L33 70L184 94Z" />
<glyph unicode="G" glyph-name="G" horiz-adv-x="1342" d="M971 1538T1063 1522T1238 1482L1276 1471L1219 1175H1122L1118 1376Q1071 1408 1005 1425T820 1443Q642 1443 515 1325T324 1024T259 656Q259 507 300 376T430 161T652 77Q746 77 845 103T997 178L1059
616L778 630L788 723H1228L1139 94Q1107 91 1047 72Q1043 70 1012 61Q929 36 877 22T752 -5T608 -17Q435 -17 321 78T154 324T101 643Q101 907 202 1111T472 1426T837 1538Q971 1538 1063 1522Z" />
<glyph unicode="H" glyph-name="H" horiz-adv-x="1515" d="M1060 95L1138 726H413L334 94L490 70L484 0H27L34 69L184 94L351 1422L215 1441L224 1522H660L651 1441L501 1422L426 830H1151L1225 1422L1078 1441L1085 1522H1525L1516 1441L1375 1422L1209 95L1364
69L1357 0H894L900 70L1060 95Z" />
<glyph unicode="I" glyph-name="I" horiz-adv-x="690" d="M203 94L370 1422L234 1441L244 1522H679L671 1441L521 1422L354 94L509 70L503 0H47L54 69L203 94Z" />
<glyph unicode="J" glyph-name="J" horiz-adv-x="706" d="M217 1441L228 1522H712L704 1441L530 1423Q528 1401 526 1390Q457 755 421 446T365 75Q309 -114 177 -214T-127 -345L-155 -274Q-65 -251 14 -196T147 -66T220 90Q253 246 280 469T344 1045Q379 1372
385 1423L217 1441Z" />
<glyph unicode="K" glyph-name="K" horiz-adv-x="1347" d="M772 426T700 551Q682 582 651 636T602 720L383 484L334 94L490 70L484 0H27L34 69L184 94L351 1422L215 1441L224 1522H660L651 1441L501 1422L402 636L1106 1422L966 1441L976 1522H1386L1375 1441L1255
1423L695 820Q709 797 729 764T776 686Q895 486 945 409Q1046 247 1087 188T1159 111L1294 75L1284 0H1044Q1021 3 983 62T882 235Q855 285 813 358Q772 426 700 551Z" />
<glyph unicode="L" glyph-name="L" horiz-adv-x="1168" d="M184 94L351 1422L215 1441L224 1522H685L677 1441L501 1422L334 94L879 103L1004 449L1094 431L998 0H28L34 70L184 94Z" />
<glyph unicode="M" glyph-name="M" horiz-adv-x="1874" d="M131 94L462 1422L277 1441L286 1522H683L860 463L891 239L993 459Q1029 551 1086 674T1239 997Q1254 1029 1313 1152T1413 1368T1479 1522H1853L1845 1441L1663 1422L1624 95L1794 70L1787 0H1280L1288
70L1474 93L1515 1018L1544 1440L1386 1066L895 -4L809 -18L629 1042L561 1438L478 1034L255 94L455 70L449 0H-49L-41 70L131 94Z" />
<glyph unicode="N" glyph-name="N" horiz-adv-x="1510" d="M177 92L350 1422L204 1441L217 1522H512L1029 374L1108 147L1259 1423L1098 1441L1108 1522H1541L1533 1441L1379 1422L1184 0H1039L526 1138L446 1367L305 94L476 70L469 0H30L36 69L177 92Z" />
<glyph unicode="O" glyph-name="O" horiz-adv-x="1382" d="M972 1542T1084 1454T1251 1217T1306 885Q1306 629 1216 423T969 98T619 -20Q458 -20 345 66T174 302T116 637Q116 894 207 1101T456 1425T809 1542Q972 1542 1084 1454ZM1149 1030T1108 1162T985 1367T784
1441Q640 1441 523 1341T337 1063T269 660Q269 484 313 353T440 149T640 76Q783 76 899 176T1082 455T1149 855Q1149 1030 1108 1162Z" />
<glyph unicode="P" glyph-name="P" horiz-adv-x="1223" d="M184 94L350 1422L215 1441L224 1522H451Q516 1522 604 1531Q702 1539 753 1539Q977 1539 1093 1440T1210 1137Q1210 952 1127 818T904 614T596 544Q498 544 390 553L335 94L519 70L512 0H27L34 69L184
94ZM1051 644T1051 1143Q1051 1293 981 1368T747 1443Q701 1443 630 1437T502 1423L401 657Q447 649 502 645T603 640Q1051 644 1051 1143Z" />
<glyph unicode="Q" glyph-name="Q" horiz-adv-x="1386" d="M969 1543T1081 1455T1248 1219T1303 887Q1303 645 1223 446T1000 126T679 -15Q681 -133 761 -175T977 -217Q1029 -217 1093 -203T1201 -166L1203 -274Q1163 -307 1084 -332T925 -358Q831 -358 752 -326T624
-231T575 -75Q575 -51 580 -18Q430 -8 325 80T167 314T113 638Q113 895 204 1102T453 1426T806 1543Q969 1543 1081 1455ZM1146 1031T1105 1163T982 1368T781 1442Q637 1442 520 1342T334 1064T266 661Q266 485 310 354T437 150T637 77Q780 77 896 177T1079 456T1146
856Q1146 1031 1105 1163Z" />
<glyph unicode="R" glyph-name="R" horiz-adv-x="1330" d="M184 94L351 1422L215 1441L224 1522H463Q504 1522 592 1530Q678 1538 720 1538Q888 1538 993 1501T1148 1387T1198 1186Q1198 1065 1149 964T1010 792T798 690Q879 631 1024 337L1058 264Q1101 170 1121
137T1171 92T1266 79L1263 0H1073Q1048 0 1026 20T975 94T905 250Q849 381 809 465T723 610T634 671H493H396L329 94L518 70L512 0H42L49 69L184 94ZM780 771T867 826T1000 973T1047 1174Q1047 1268 1015 1326T905 1414T695 1443Q669 1443 602 1438T496 1427L408
766Q458 763 587 763Q651 763 665 764Q780 771 867 826Z" />
<glyph unicode="S" glyph-name="S" horiz-adv-x="1084" d="M184 345L196 135Q238 107 313 90T463 72Q549 72 631 103T766 200T820 363Q820 442 784 502T693 606T555 701Q443 771 374 825T253 960T201 1148Q201 1263 265 1353T436 1492T670 1542Q799 1542 891 1517T1035
1457L989 1197H907L896 1391Q862 1415 799 1431T657 1447Q580 1447 510 1420T396 1337T351 1198Q351 1114 391 1049T490 937T641 834L668 817Q767 755 826 707T928 587T970 417Q970 283 903 183T720 30T458 -23Q372 -23 288 -9T142 25T54 65L95 345H184Z" />
<glyph unicode="T" glyph-name="T" horiz-adv-x="1225" d="M460 94L632 1435L255 1419L172 1077L84 1075L156 1522H1293L1232 1075L1148 1074L1165 1419L784 1435L611 94L860 75L854 0H210L216 75L460 94Z" />
<glyph unicode="U" glyph-name="U" horiz-adv-x="1379" d="M271 1423L131 1442L140 1522H586L578 1442L424 1421L315 607Q303 512 305 418Q308 252 387 161T620 69Q812 69 920 206T1063 627L1168 1421L1033 1441L1041 1522H1440L1432 1441L1301 1423L1196 627Q1166
393 1091 251T895 45T598 -20Q457 -20 358 33T208 187T153 426Q151 512 161 593L271 1423Z" />
<glyph unicode="V" glyph-name="V" horiz-adv-x="1209" d="M62 1441L69 1522H550L542 1441L360 1422L507 449L546 133L669 449L1098 1422L949 1442L956 1522H1351L1343 1442L1229 1423L578 -11L444 -21L202 1422L62 1441Z" />
<glyph unicode="W" glyph-name="W" horiz-adv-x="1791" d="M34 1441L43 1522H515L507 1441L323 1425L452 435L494 135L578 374L930 1279L914 1424L777 1441L785 1522H1261L1245 1441L1066 1424L1166 435L1187 135L1288 398L1719 1421L1566 1441L1575 1522H1997L1985
1441L1846 1421L1226 -10H1072L960 1065L535 -10H383L180 1421L34 1441Z" />
<glyph unicode="X" glyph-name="X" horiz-adv-x="1294" d="M82 93L590 770L282 1419L131 1441L139 1522H639L631 1441L457 1423L690 870L1075 1422L903 1441L912 1522H1375L1368 1441L1223 1423L738 775L1075 94L1242 70L1236 0H714L720 70L900 93L636 670L232
94L411 69L404 0H-63L-55 70L82 93Z" />
<glyph unicode="Y" glyph-name="Y" horiz-adv-x="1173" d="M481 94L545 586L177 1422L59 1441L66 1522H542L533 1441L346 1422L592 822L638 685L719 822L1086 1422L928 1441L937 1522H1338L1330 1441L1219 1423L688 586L624 94L845 70L838 0H241L248 70L481 94Z" />
<glyph unicode="Z" glyph-name="Z" horiz-adv-x="1197" d="M850 1217L1028 1430L365 1424L280 1159L189 1178L245 1522H1183L1203 1453L336 274L191 86L919 106L1036 378L1129 353L1036 0H27L6 73L850 1217Z" />
<glyph unicode="[" glyph-name="bracketleft" horiz-adv-x="854" d="M426 1605T444 1647T496 1708T592 1726Q668 1726 821 1696Q835 1694 848 1692T871 1688L861 1618H570L336 -72L633 -74Q627 -118 625 -143Q559 -160 479 -170T330 -181Q258 -181 229 -157T200
-67Q200 -28 203 22Q210 139 242 363T330 950Q396 1366 416 1525Q426 1605 444 1647Z" />
<glyph unicode="\" glyph-name="backslash" horiz-adv-x="854" d="M134 1597H266L843 -362H710L134 1597Z" />
<glyph unicode="]" glyph-name="bracketright" horiz-adv-x="854" d="M479 -49T461 -91T409 -152T313 -170Q236 -170 84 -140Q70 -138 57 -136T34 -132L44 -62H335L569 1628L272 1630Q278 1674 280 1699Q346 1716 426 1726T575 1737Q647 1737 676 1713T705 1623Q705
1584 702 1534Q695 1417 663 1193T575 606Q509 190 489 31Q479 -49 461 -91Z" />
<glyph unicode="^" glyph-name="asciicircum" horiz-adv-x="1363" d="M758 1531L1178 413H1057L680 1369L304 413H185L600 1531H758Z" />
<glyph unicode="_" glyph-name="underscore" horiz-adv-x="1335" d="M1267 -338H-111L-95 -217H1283L1267 -338Z" />
<glyph unicode="`" glyph-name="grave" horiz-adv-x="541" d="M175 1729L477 1304L427 1255Q379 1285 301 1354T153 1495T60 1612L175 1729Z" />
<glyph unicode="a" glyph-name="a" horiz-adv-x="1173" d="M1062 100Q1053 84 1025 55T955 3T867 -20Q751 -20 751 98L752 117L762 191L764 204Q696 112 602 46T406 -20Q244 -20 166 96T88 412Q88 575 166 750T390 1044T728 1163Q774 1163 827 1153T925 1126L927
1128L1039 1162L905 173Q903 155 903 147Q903 115 916 100T944 85Q963 85 982 98T1035 144L1062 100ZM871 1017Q839 1041 796 1052T705 1064Q563 1064 458 967T299 722T244 431Q244 271 290 183T433 94Q500 94 568 133T691 229T782 342L871 1017Z" />
<glyph unicode="b" glyph-name="b" horiz-adv-x="1176" d="M238 1550L254 1618L458 1650L499 1627L411 973Q467 1051 555 1107T747 1163Q859 1163 935 1108T1049 956T1087 730Q1087 567 1010 392T789 98T454 -20Q393 -20 323 -5T208 32L131 -5L334 1516L238 1550ZM297
130Q361 78 478 78Q622 78 724 179T879 430T931 719Q931 875 877 961T723 1048Q653 1048 587 1014T471 931T392 833L297 130Z" />
<glyph unicode="c" glyph-name="c" horiz-adv-x="890" d="M76 594T145 764T348 1049T660 1163Q715 1163 776 1150T880 1115L836 960Q829 966 815 976Q771 1007 721 1026T625 1045Q507 1045 419 971T283 762T235 453Q235 276 299 184T478 92Q535 92 582 107T670
147T768 217L799 151Q741 86 651 33T437 -20Q324 -20 243 34T119 189T76 430Q76 594 145 764Z" />
<glyph unicode="d" glyph-name="d" horiz-adv-x="1175" d="M84 575T162 750T386 1044T724 1163Q802 1163 900 1134L958 1515L829 1548L845 1615L1079 1650L1122 1627L906 158Q904 140 904 134Q904 110 911 98T929 85Q950 85 973 98T1027 140L1052 96Q1041 78 1012
51T941 2T852 -20Q745 -20 751 102Q752 103 752 160Q694 85 606 33T416 -20Q307 -20 233 35T121 187T84 412Q84 575 162 750ZM881 1010Q847 1038 800 1051T701 1065Q555 1065 451 964T293 712T240 423Q240 268 292 181T441 94Q509 94 574 125T690 204T772 298L881
1010Z" />
<glyph unicode="e" glyph-name="e" horiz-adv-x="1051" d="M768 1163T831 1131T925 1042T957 913Q957 769 832 670T539 520T251 467Q249 437 249 422Q249 340 274 265T357 141T504 92Q592 92 687 132T864 254L901 186Q869 142 807 94T660 13T486 -20Q352 -20 264
41T134 203T92 420Q92 611 169 782T380 1058T676 1163Q768 1163 831 1131ZM802 983T760 1026T641 1069Q535 1069 451 989T317 790T255 557Q375 561 502 603T716 723T802 900Q802 983 760 1026Z" />
<glyph unicode="f" glyph-name="f" horiz-adv-x="700" d="M152 1040L165 1101L311 1150L326 1249Q344 1363 404 1459T549 1613T725 1670Q771 1670 809 1665T883 1644L838 1510Q810 1528 777 1540T696 1553Q607 1553 549 1475T474 1263L460 1155H725L712 1040H446L303
-74Q278 -276 188 -394T-44 -513Q-91 -514 -137 -510T-206 -499L-166 -365Q-150 -372 -95 -385T-4 -398Q60 -398 94 -328T146 -127L292 1040H152Z" />
<glyph unicode="g" glyph-name="g" horiz-adv-x="1149" d="M779 1163T836 1151T940 1121L1055 1163L862 -77Q841 -225 756 -322T557 -463T334 -508Q272 -508 210 -498T115 -473L153 -325Q204 -348 271 -364T407 -381Q502 -381 562 -358T657 -280T707 -131L752
160Q693 84 606 32T416 -20Q307 -20 233 35T121 187T84 412Q84 575 162 750T386 1044T724 1163Q779 1163 836 1151ZM879 1011Q845 1039 798 1052T701 1065Q555 1065 451 964T293 712T240 423Q240 268 292 181T441 94Q509 94 574 126T691 205T773 299L879 1011Z"
/>
<glyph unicode="h" glyph-name="h" horiz-adv-x="1239" d="M863 501Q885 613 898 699T911 859Q911 927 897 965T852 1020T774 1036Q712 1036 638 996T493 889T369 743L269 0H122L323 1515L208 1548L221 1615L447 1650L488 1627L386 870Q474 996 595 1079T838 1163Q949
1163 1006 1095T1064 867Q1064 810 1053 739T1020 555L1011 505Q1003 459 1001 450Q964 247 957 157Q954 84 985 84Q1008 84 1030 98T1093 147L1119 103Q1109 85 1078 56T1001 3T905 -20Q799 -20 799 83Q799 130 809 196T839 366Q841 377 855 457L863 501Z" />
<glyph unicode="i" glyph-name="i" horiz-adv-x="633" d="M168 1052L181 1117L431 1159L471 1138L330 158Q328 142 328 136Q328 111 337 98T359 85Q382 85 406 101T467 156L493 112Q479 91 449 61T375 5T280 -20Q231 -20 202 4T172 83Q172 119 189 240T239 580Q277
825 302 1012L168 1052ZM340 1531T356 1559T399 1605T451 1622Q493 1622 518 1597T543 1531Q543 1496 527 1466T485 1419T427 1401Q391 1401 366 1428T340 1497Q340 1531 356 1559Z" />
<glyph unicode="j" glyph-name="j" horiz-adv-x="647" d="M-184 -415Q-171 -422 -145 -427T-97 -432Q43 -432 112 -300T209 58L318 1012L178 1052L191 1117L447 1159L486 1138L352 2Q322 -253 212 -385T-72 -518Q-121 -518 -158 -509T-212 -481L-184 -415ZM352
1531T368 1559T411 1605T463 1622Q505 1622 530 1597T555 1531Q555 1496 539 1466T497 1419T439 1401Q403 1401 378 1428T352 1497Q352 1531 368 1559Z" />
<glyph unicode="k" glyph-name="k" horiz-adv-x="1063" d="M198 1548L210 1615L436 1650L478 1627L259 0H112L313 1515L198 1548ZM790 955T801 991T819 1072Q826 1115 855 1139T921 1163Q955 1163 978 1139T1002 1078Q1002 1016 958 956Q906 880 801 807T554 649L502
618L798 189Q827 147 859 120T917 93Q939 93 967 107T1023 151L1050 101Q1034 73 1001 45T924 -1T836 -20Q794 -20 755 6T683 88L367 610L369 611H367Q418 648 494 696Q596 762 656 809T762 917Q790 955 801 991Z" />
<glyph unicode="l" glyph-name="l" horiz-adv-x="606" d="M348 1515L230 1548L246 1615L468 1650L507 1627L301 158Q299 142 299 135Q299 111 307 98T328 85Q351 85 377 101T439 155L464 112Q454 93 423 62T346 5T251 -20Q200 -20 176 9T152 102Q152 130 158 170L348
1515Z" />
<glyph unicode="m" glyph-name="m" horiz-adv-x="1893" d="M896 581T908 680T921 859Q921 929 909 967T867 1021T784 1037Q724 1037 651 998T508 892T384 746L285 0H137L270 1002L173 1049L186 1121L391 1163L429 1143L402 882Q493 1003 613 1083T849 1163Q959
1163 1013 1100T1072 899Q1155 1014 1262 1088T1475 1163Q1583 1163 1644 1092T1706 867Q1706 818 1697 757T1670 587L1656 506L1643 428Q1641 414 1631 355T1614 245T1605 158L1604 138Q1604 85 1628 85Q1652 85 1678 101T1742 156L1767 112Q1755 92 1724 61T1647
5T1552 -20Q1500 -20 1475 7T1452 94Q1454 144 1463 209T1488 372Q1496 414 1503 462L1515 531Q1534 642 1544 716T1555 858Q1555 926 1541 964T1497 1019T1420 1035Q1341 1035 1244 960T1067 772Q1059 685 1032 505L962 0H812L876 457Q896 581 908 680Z" />
<glyph unicode="n" glyph-name="n" horiz-adv-x="1258" d="M173 1049L187 1121L392 1163L430 1143L402 882Q492 1002 613 1082T849 1163Q961 1163 1019 1095T1077 868Q1077 814 1067 744T1037 574L1024 505L1013 445Q996 350 985 282T971 157L970 138Q970 113
976 99T994 85Q1034 85 1092 139L1117 95Q1108 79 1078 51T1004 1T914 -21Q812 -21 812 85Q812 133 823 203T854 376L869 457L881 521Q902 634 913 712T925 859Q925 928 912 966T868 1021T784 1037Q724 1037 651 998T508 891T384 745L285 0H137L271 1002L173 1049Z"
/>
<glyph unicode="o" glyph-name="o" horiz-adv-x="1143" d="M780 1163T868 1108T1003 947T1049 694Q1049 515 977 350T775 83T484 -20Q357 -20 268 35T133 195T87 448Q87 629 160 794T362 1061T653 1163Q780 1163 868 1108ZM890 867T824 966T626 1065Q507 1065
420 972T289 738T244 453Q244 273 312 176T511 78Q628 78 714 171T845 405T890 688Q890 867 824 966Z" />
<glyph unicode="p" glyph-name="p" horiz-adv-x="1155" d="M195 -520H50L258 1017L150 1057L163 1121L378 1163L415 1143L396 975Q452 1054 538 1108T726 1163Q838 1163 914 1108T1028 956T1066 730Q1066 566 989 391T768 98T433 -20Q360 -20 267 5L195 -520ZM283
126Q347 78 457 78Q597 78 700 177T856 426T910 719Q910 877 854 962T702 1048Q636 1048 574 1017T462 940T382 845L283 126Z" />
<glyph unicode="q" glyph-name="q" horiz-adv-x="1151" d="M84 575T162 750T386 1044T724 1163Q773 1163 830 1151T932 1121L939 1129L1025 1139L828 -340Q827 -345 827 -356Q827 -379 834 -396T852 -414Q899 -414 965 -342L991 -387Q978 -406 946 -437T867 -493T771
-518Q721 -518 697 -489T675 -397L748 154Q689 81 603 31T416 -20Q307 -20 233 35T121 187T84 412Q84 575 162 750ZM799 1064T700 1064Q558 1064 454 965T295 716T240 423Q240 265 294 180T441 94Q507 94 569 123T682 197T765 288L803 582L861 1020Q799 1064 700
1064Z" />
<glyph unicode="r" glyph-name="r" horiz-adv-x="836" d="M164 1044L178 1116L385 1159L421 1140L408 961L396 875Q422 934 479 1001T617 1115T786 1162Q836 1162 851 1149L818 983Q791 997 722 997Q661 997 595 965T470 868T375 711L286 0H138L266 998L164 1044Z" />
<glyph unicode="s" glyph-name="s" horiz-adv-x="870" d="M109 136T185 113T346 89Q449 89 517 127T586 262Q586 317 556 363T488 440T384 519Q300 577 233 660T165 850Q165 944 217 1015T356 1124T546 1163Q620 1163 697 1150T802 1122L772 987Q765 998 732 1015T648
1046T539 1059Q439 1059 378 1019T310 898Q306 842 331 795T394 711T488 634Q566 575 610 535T692 432T729 291Q729 194 676 124T534 17T337 -20Q247 -20 159 -1T43 43L70 164Q109 136 185 113Z" />
<glyph unicode="t" glyph-name="t" horiz-adv-x="731" d="M273 1042H148L163 1112L291 1150Q314 1183 343 1259T399 1416H473L438 1154H723L708 1042H425L332 344Q317 229 317 188Q317 151 325 131T355 101T416 92Q459 92 522 122T621 180L636 116Q614 89 564
57T452 3T338 -20Q163 -20 163 147Q163 184 173 268L273 1042Z" />
<glyph unicode="u" glyph-name="u" horiz-adv-x="1202" d="M255 998L158 1045L171 1116L376 1159L415 1138L347 599Q341 554 337 530Q325 439 320 387T314 279Q314 204 333 163T386 106T472 90Q528 90 591 122T710 205T806 314L898 1017L915 1151H1062L932 159Q930
139 930 132Q930 110 937 99T956 87Q978 87 1005 103T1069 158L1094 113Q1082 94 1050 63T971 7T874 -18Q829 -18 804 8T779 81Q779 100 783 119L787 158L790 196Q716 103 619 42T409 -20Q290 -20 228 42T165 254Q165 314 174 394T201 606L255 998Z" />
<glyph unicode="v" glyph-name="v" horiz-adv-x="1058" d="M180 976Q170 1047 132 1047Q112 1047 95 1036T56 1006L32 1056Q42 1072 67 1096T130 1141T211 1161Q275 1161 299 1127T331 1024L409 352L433 132L585 327Q691 478 756 619T845 922Q846 929 846 941Q846
964 841 983T827 1027Q826 1031 821 1046T815 1075Q815 1118 834 1139T887 1161Q937 1161 965 1110T993 973Q993 841 906 662T698 313L456 -9L339 -20L280 352L180 976Z" />
<glyph unicode="w" glyph-name="w" horiz-adv-x="1696" d="M999 -19L964 322L915 804L908 938L862 803L617 289L473 -8L342 -20L286 323L183 976Q176 1014 164 1030T132 1047Q114 1047 99 1038T72 1019T56 1006L32 1056Q43 1072 68 1096T132 1141T214 1161Q258
1161 282 1146T318 1102T337 1024L415 311L434 121L512 290L885 1153H1019L1093 311L1111 121L1246 316Q1286 371 1339 475T1435 700T1482 923Q1483 951 1479 973T1464 1026Q1453 1059 1453 1075Q1453 1117 1472 1139T1525 1161Q1628 1161 1628 965Q1628 839 1547
664T1350 313L1144 -8L999 -19Z" />
<glyph unicode="x" glyph-name="x" horiz-adv-x="1016" d="M139 0H-20L436 599L272 991Q258 1023 243 1038T200 1053Q172 1053 143 1035T100 997L69 1043Q79 1060 108 1087T179 1137T269 1159Q333 1159 363 1134T409 1055L519 689L851 1151H1014L564 566L751 148Q764
116 778 101T815 85Q863 85 934 159L962 114Q955 98 922 65T841 6T746 -20Q704 -20 679 -8T640 27T613 85L481 476L139 0Z" />
<glyph unicode="y" glyph-name="y" horiz-adv-x="1071" d="M187 1015T176 1030T146 1045Q127 1045 107 1032T55 988L31 1038Q42 1056 70 1084T140 1136T224 1159Q267 1159 291 1143T326 1098T345 1022L449 258L477 -27Q496 9 564 140Q641 291 649 303L706 418Q765
536 798 612T855 775T878 949Q878 979 860 1019Q852 1039 848 1051T844 1076Q844 1118 864 1138T918 1158Q969 1158 997 1112T1025 978Q1025 884 991 777T910 574T794 349L762 290Q650 60 558 -94T398 -329Q350 -397 262 -451T51 -505Q11 -505 -38 -496T-122 -476L-86
-349Q-82 -351 -60 -361T0 -380T81 -388Q136 -388 199 -357T328 -256T446 -79H376L195 974Q187 1015 176 1030Z" />
<glyph unicode="z" glyph-name="z" horiz-adv-x="1034" d="M240 1149T260 1154T315 1160Q395 1160 623 1144Q820 1129 887 1129Q914 1129 936 1135T982 1158L981 1154L1025 1112L545 480L223 126Q250 125 281 125T344 124Q614 118 680 118Q757 118 798 167T855
315H920Q913 207 891 116T829 -2Q798 -22 729 -22Q678 -22 591 -16T418 -3Q343 3 272 8T164 13Q143 13 119 7T75 -14L66 -22L14 28L684 843L832 1010L732 1012Q494 1019 399 1019Q338 1019 334 1016Q285 1013 253 953T215 813H149Q148 862 156 932T181 1061T225
1139Q240 1149 260 1154Z" />
<glyph unicode="{" glyph-name="braceleft" horiz-adv-x="1020" d="M419 621T355 655Q288 698 182 726L197 827Q327 859 395 891Q466 921 474 967L559 1525Q571 1606 590 1648T643 1708T737 1725Q777 1725 835 1717T941 1700T1001 1688Q999 1679 995 1653T991
1618H715L616 970Q610 929 585 899T510 844Q473 827 417 804T346 776Q462 720 502 687Q557 645 557 592Q557 581 556 576L458 -72H733L724 -143Q639 -163 582 -172T450 -181Q400 -181 373 -171T333 -135T321 -65Q322 -51 361 215T416 579Q419 621 355 655Z" />
<glyph unicode="|" glyph-name="bar" horiz-adv-x="854" d="M515 1780V-186H383V1780H515Z" />
<glyph unicode="}" glyph-name="braceright" horiz-adv-x="1020" d="M639 925T703 891Q770 848 876 820L861 719Q731 687 663 655Q592 625 584 579L499 21Q487 -60 468 -102T415 -162T321 -179Q281 -179 223 -171T117 -154T57 -142Q59 -133 63 -107T67 -72H343L442
576Q448 617 473 647T548 702Q585 719 641 742T712 770Q596 826 556 859Q501 901 501 954Q501 965 502 970L600 1618H325L334 1689Q419 1709 476 1718T608 1727Q658 1727 685 1717T725 1681T737 1611Q736 1597 697 1331T642 967Q639 925 703 891Z" />
<glyph unicode="~" glyph-name="asciitilde" horiz-adv-x="1137" d="M171 888T216 935T325 1014T461 1046Q514 1046 555 1022T651 951Q699 910 731 891T802 871Q872 871 924 907T1012 999L1068 939Q1054 890 1012 844T908 768T773 738Q719 738 678 762T581 833Q533
874 501 893T432 913Q366 913 309 879T211 785L156 845Q171 888 216 935Z" />
<glyph unicode="&#xa1;" glyph-name="exclamdown" horiz-adv-x="686" d="M384 1134T362 1157T339 1219Q339 1232 340 1239Q348 1295 385 1328T469 1362Q508 1362 530 1340T553 1274Q553 1262 552 1256Q545 1203 510 1169T430 1134Q384 1134 362 1157ZM112 -434L341
856H447L298 -434H112Z" />
<glyph unicode="&#xa2;" glyph-name="cent" horiz-adv-x="1056" d="M285 12T210 128T135 430Q135 578 193 734T362 1007T624 1153L672 1358H788L741 1162Q792 1160 846 1147T939 1115L895 960Q888 966 874 976Q830 1007 780 1026T684 1045Q566 1045 478 971T342
762T294 453Q294 276 358 184T537 92Q594 92 641 107T729 147T827 217L858 151Q805 92 725 42T535 -18L499 -215H384L421 -13Q285 12 210 128Z" />
<glyph unicode="&#xa3;" glyph-name="sterling" horiz-adv-x="1368" d="M418 854Q425 891 428 917T435 961L440 991Q465 1138 538 1265T724 1469T971 1547Q1065 1547 1125 1530T1230 1465L1144 1330Q1130 1349 1095 1373T1008 1416T898 1434Q790 1434 706 1329T587
993Q580 942 563 854H900L887 749H543Q531 687 526 647Q502 478 466 374T362 171Q393 163 475 135Q573 101 644 83T798 65Q1117 65 1117 313Q1117 366 1091 418T1031 498L1135 601Q1197 550 1234 478T1271 322Q1270 236 1230 158T1087 28T810 -24Q697 -24 596 0T369
69L294 94Q259 50 199 17T89 -16Q28 -16 28 42Q28 53 29 60Q33 90 68 122T156 177T262 199Q292 235 316 318T357 489L368 556L401 749H214L228 854H418Z" />
<glyph unicode="&#xa4;" glyph-name="currency" horiz-adv-x="1540" d="M429 421Q385 477 361 546T337 690Q337 764 360 832T427 956L238 1147L324 1238L516 1043Q572 1084 638 1106T777 1128Q851 1128 920 1104T1047 1036L1236 1225L1322 1134L1134 945Q1174
890 1195 825T1217 690Q1217 617 1195 551T1130 428L1320 237L1233 146L1041 339Q986 297 918 275T777 252Q706 252 641 273T520 334L328 141L241 231L429 421ZM866 359T941 403T1059 524T1103 690Q1103 780 1060 856T941 976T777 1021Q688 1021 613 977T495 856T451
690Q451 600 494 524T613 404T777 359Q866 359 941 403Z" />
<glyph unicode="&#xa5;" glyph-name="yen" horiz-adv-x="1483" d="M662 841L332 1426L202 1442L210 1522H699L690 1442L488 1427L750 959L801 843L876 965L1218 1427L1049 1442L1058 1522H1499L1490 1443L1363 1419L907 841H1278L1267 735H837L809 486H1237L1226
381H797L764 95L1004 70L997 0H382L389 70L629 95L662 381H234L246 486H674L703 735H275L286 841H662Z" />
<glyph unicode="&#xa6;" glyph-name="brokenbar" horiz-adv-x="854" d="M515 1780V886H384V1780H515ZM515 708V-186H384V708H515Z" />
<glyph unicode="&#xa7;" glyph-name="section" horiz-adv-x="1194" d="M177 230L194 -2Q242 -54 332 -74T523 -94Q599 -94 678 -65T816 25T886 170Q887 177 887 192Q887 250 845 293T741 366T571 438Q444 487 367 526T235 628T181 778Q181 788 183 810Q192 881
231 959T325 1096Q249 1172 249 1272Q249 1284 251 1308Q267 1437 353 1519T550 1637T751 1673Q878 1673 983 1650T1134 1597L1097 1296H1024L991 1522Q964 1554 890 1570T737 1587Q670 1587 596 1566T463 1490T394 1347Q393 1340 393 1326Q393 1265 434 1220T537
1142T707 1065Q830 1014 905 973T1033 870T1086 719Q1086 700 1083 679Q1073 605 1040 530T958 395Q1027 323 1027 228Q1027 218 1025 194Q1011 75 925 -11T722 -142T500 -186Q421 -186 327 -172T158 -138T56 -100L96 230H177ZM356 997T334 945T312 844Q312 776
357 727T468 645T647 566Q739 529 791 506T889 452Q918 498 936 548T955 643Q955 712 910 763T799 849T621 931Q538 966 487 990T391 1043Q356 997 334 945Z" />
<glyph unicode="&#xa8;" glyph-name="dieresis" horiz-adv-x="809" d="M91 1531T106 1560T148 1606T203 1623Q244 1623 269 1597T294 1531Q294 1496 278 1467T235 1420T177 1402Q141 1402 116 1429T91 1497Q91 1531 106 1560ZM513 1530T528 1559T569 1606T624
1623Q666 1623 691 1597T716 1531Q716 1496 700 1467T657 1420T599 1402Q563 1402 538 1428T513 1495Q513 1530 528 1559Z" />
<glyph unicode="&#xa9;" glyph-name="copyright" horiz-adv-x="1768" d="M1138 1558T1311 1457T1587 1183T1689 805Q1689 599 1587 426T1312 152T933 51Q728 51 555 152T280 426T178 805Q178 1010 279 1183T554 1457T933 1558Q1138 1558 1311 1457ZM1115 137T1267
227T1508 470T1597 805Q1597 986 1509 1139T1268 1383T933 1473Q752 1473 600 1383T359 1140T270 805Q270 623 358 470T599 227T933 137Q1115 137 1267 227ZM1037 1246T1105 1235T1203 1208V1003H1144L1103 1139Q1082 1157 1038 1167T939 1177Q860 1177 797 1138T697
1023T661 843Q661 712 703 623T812 490T953 447Q1019 447 1081 466T1189 512L1213 457Q1167 419 1086 392T920 365Q803 365 718 424T587 583T542 805Q542 926 594 1026T743 1186T969 1246Q1037 1246 1105 1235Z" />
<glyph unicode="&#xaa;" glyph-name="ordfeminine" horiz-adv-x="854" d="M95 1168T163 1292T348 1497T606 1577Q649 1577 696 1569T780 1548L860 1579L736 902Q733 880 733 863Q733 820 756 820Q782 820 826 851L845 818Q840 809 813 791T751 758T684 743Q647
743 624 769T601 841Q601 865 606 884Q556 823 493 783T341 743Q224 743 160 822T95 1040Q95 1168 163 1292ZM700 1441Q680 1465 648 1480T588 1495Q481 1495 401 1430T278 1263T235 1052Q235 950 275 894T401 838Q453 838 507 871T610 951L700 1441Z" />
<glyph unicode="&#xab;" glyph-name="guillemotleft" horiz-adv-x="1869" d="M1208 1086L1237 993L681 614L1133 242L1080 152L497 547L513 674L1208 1086ZM1627 1086L1656 993L1100 614L1552 242L1499 152L916 547L932 674L1627 1086Z" />
<glyph unicode="&#xac;" glyph-name="logicalnot" horiz-adv-x="1370" d="M1188 837L1129 322H994L1042 731H214L225 837H1188Z" />
<glyph unicode="&#xad;" glyph-name="uni00AD" horiz-adv-x="1271" d="M1085 836L1072 709H239L253 836H1085Z" />
<glyph unicode="&#xae;" glyph-name="registered" horiz-adv-x="1768" d="M1138 1559T1311 1458T1587 1184T1689 806Q1689 600 1587 427T1312 153T933 52Q728 52 555 153T280 427T178 806Q178 1011 279 1184T554 1458T933 1559Q1138 1559 1311 1458ZM1115 138T1267
228T1508 471T1597 806Q1597 987 1509 1140T1268 1384T933 1474Q752 1474 600 1384T359 1141T270 806Q270 624 358 471T599 228T933 138Q1115 138 1267 228ZM667 452V1154L572 1173V1240H714H745Q761 1240 817 1242L954 1245Q1104 1245 1186 1183T1270 1014Q1270
801 1027 765Q1081 735 1115 689T1190 566Q1217 515 1234 489T1273 449Q1299 438 1338 438V375H1204Q1181 375 1162 404T1111 498Q1081 561 1056 605T993 690T909 751H775V452L898 436V375H572V436L667 452ZM1015 817T1059 842T1126 908T1149 997Q1149 1083 1094
1127T934 1172Q878 1172 843 1171T775 1162V823Q812 817 955 817Q1015 817 1059 842Z" />
<glyph unicode="&#xaf;" glyph-name="overscore" horiz-adv-x="614" d="M573 1551L557 1432H48L63 1551H573Z" />
<glyph unicode="&#xb0;" glyph-name="degree" horiz-adv-x="899" d="M205 1364T249 1439T370 1557T542 1600Q632 1600 705 1558T821 1443T863 1284Q863 1191 818 1116T696 998T523 955Q435 955 362 997T247 1113T205 1272Q205 1364 249 1439ZM756 1345T727 1395T648
1473T538 1502Q474 1502 423 1473T342 1391T312 1274Q312 1213 340 1163T419 1082T528 1052Q593 1052 645 1082T726 1165T756 1284Q756 1345 727 1395Z" />
<glyph unicode="&#xb1;" glyph-name="plusminus" horiz-adv-x="1370" d="M638 715L477 709H252L265 836H491L650 827Q656 893 659 916Q661 935 663 958T667 1005L693 1235H830L804 1005L774 827L908 836H1163L1150 709H894L763 715Q762 699 756 640Q748 563 747
536L718 295H581L610 536L638 715ZM1062 150L1049 30H180L193 150H1062Z" />
<glyph unicode="&#xb4;" glyph-name="acute" horiz-adv-x="559" d="M381 1729L489 1620Q469 1586 399 1510T246 1360T107 1255L58 1304L381 1729Z" />
<glyph unicode="&#xb5;" glyph-name="uni00B5" horiz-adv-x="1364" d="M126 -372L234 358Q239 392 263 546Q306 810 322 961Q323 973 323 994Q323 1020 317 1032T295 1045Q280 1045 263 1035T223 1002L197 1045Q205 1061 232 1086T297 1131T376 1150Q427 1150
452 1127T478 1048Q478 1031 477 1021Q469 930 439 723L433 681L420 603Q403 504 394 438T383 305Q380 90 558 90Q638 90 728 143T877 261L997 1140H1145L1017 189Q1012 152 1012 131Q1012 109 1018 98T1040 87Q1072 87 1121 133L1148 87Q1137 72 1109 47T1041
2T960 -18Q908 -18 883 3T857 80Q857 106 861 131Q796 66 704 23T502 -20Q444 -19 400 1T333 58L268 -372H126Z" />
<glyph unicode="&#xb6;" glyph-name="paragraph" horiz-adv-x="1364" d="M446 94L528 750Q416 753 333 794T203 915T157 1105Q157 1313 291 1430T708 1547Q769 1547 829 1544T940 1536Q1052 1528 1099 1528H1345L1337 1445L1165 1419Q1161 1388 1060 556L1005
94L1164 69L1157 0H844L1014 1417Q999 1418 893 1420T762 1421L581 0H256L262 70L446 94Z" />
<glyph unicode="&#xb7;" glyph-name="middot" horiz-adv-x="686" d="M405 833T427 810T450 748Q450 735 449 728Q441 672 404 639T320 605Q282 605 259 628T236 693Q236 705 237 711Q244 764 279 798T359 833Q405 833 427 810Z" />
<glyph unicode="&#xb8;" glyph-name="cedilla" horiz-adv-x="479" d="M375 21Q409 -37 409 -136Q409 -246 374 -319T279 -428T142 -464Q102 -464 66 -456T12 -436L24 -316Q37 -323 66 -328T126 -333Q217 -333 266 -266T315 -86Q315 -27 296 21L334 25L375 21Z" />
<glyph unicode="&#xba;" glyph-name="ordmasculine" horiz-adv-x="854" d="M91 1237T160 1352T335 1528T547 1589Q652 1589 726 1544T838 1419T876 1234Q876 1081 810 967T640 793T423 733Q325 733 250 776T133 898T91 1085Q91 1237 160 1352ZM728 1304T705 1370T638
1473T533 1510Q443 1510 376 1450T274 1295T238 1099Q238 1015 263 951T331 853T427 818Q523 818 591 874T693 1021T728 1220Q728 1304 705 1370Z" />
<glyph unicode="&#xbb;" glyph-name="guillemotright" horiz-adv-x="1869" d="M166 152L137 245L693 624L241 996L294 1086L877 691L861 564L166 152ZM842 152L813 245L1369 624L917 996L970 1086L1553 691L1537 564L842 152Z" />
<glyph unicode="&#xbc;" glyph-name="onequarter" horiz-adv-x="2503" d="M486 627L580 1366Q528 1343 446 1322T280 1286L274 1369Q391 1402 491 1441T665 1534H667L728 1520L617 627L877 607L868 529H213L222 608L486 627ZM1941 1034H1988L2060 969L1616 367L1545
269L1977 292L2008 544L2139 559L2107 299L2295 310L2282 192H2093L2068 -15H1939L1964 192H1435L1407 261L1941 1034ZM1623 1530L942 0H819L1500 1530H1623Z" />
<glyph unicode="&#xbd;" glyph-name="onehalf" horiz-adv-x="2503" d="M486 627L580 1366Q528 1343 446 1322T280 1286L274 1369Q391 1402 491 1441T665 1534H667L728 1520L617 627L877 607L868 529H213L222 608L486 627ZM1623 1530L942 0H819L1500 1530H1623ZM1666
215T1877 392T2089 743Q2089 811 2039 855T1898 900Q1810 900 1725 863T1591 774L1545 831Q1575 870 1634 911T1771 980T1929 1008Q2024 1008 2091 976T2192 891T2226 776Q2226 665 2129 537T1884 292T1587 94L2110 117L2187 275L2264 259L2198 0H1455L1433 79Q1666
215 1877 392Z" />
<glyph unicode="&#xbe;" glyph-name="threequarters" horiz-adv-x="2503" d="M230 634T295 619T419 603Q580 603 680 659T790 828L791 843Q791 887 767 924T697 985T588 1009Q573 1009 565 1008Q547 1003 505 988Q495 985 458 972T407 957L395 1043Q482 1062 566
1100Q648 1135 699 1184T757 1296Q759 1314 759 1321Q759 1377 719 1408T578 1440Q500 1440 425 1409T294 1331L256 1401Q325 1461 422 1500T626 1539Q710 1539 772 1516T866 1450T899 1352Q899 1339 898 1332Q882 1150 644 1057Q655 1058 675 1058Q767 1058 824
1027T906 948T931 849Q931 835 930 829Q921 739 856 667T681 555T438 514Q374 514 299 529T165 574L175 659Q230 634 295 619ZM1941 1034H1988L2060 969L1616 367L1545 269L1977 292L2008 544L2139 559L2107 299L2295 310L2282 192H2093L2068 -15H1939L1964 192H1435L1407
261L1941 1034ZM1623 1530L942 0H819L1500 1530H1623Z" />
<glyph unicode="&#xbf;" glyph-name="questiondown" horiz-adv-x="1028" d="M536 1204T514 1226T491 1288Q491 1331 509 1364T556 1414T620 1432Q658 1432 681 1410T704 1346Q704 1333 703 1326Q696 1273 661 1239T582 1204Q536 1204 514 1226ZM772 641T737 592T640
502T483 412Q413 378 371 354T290 294T220 209Q192 148 192 91Q192 -20 235 -102T361 -228T562 -272Q621 -272 675 -262T767 -234L747 -345Q723 -367 656 -383T521 -399Q271 -399 167 -280T62 20Q62 82 78 139T123 243Q153 295 197 337T287 409T403 481L424 493Q498
536 539 566T607 636T634 728Q634 776 625 834T604 927L699 967L713 966Q736 928 754 850T772 701Q772 641 737 592Z" />
<glyph unicode="&#xc0;" glyph-name="Agrave" horiz-adv-x="1342" d="M888 1522L1150 96L1319 69L1314 0H811L815 69L1000 93L938 460H347L173 94L356 69L351 0H-120L-112 69L27 93L735 1522H888ZM922 557L802 1273L789 1391L393 557H922ZM628 2000L900 1651L849
1614Q796 1644 730 1694T608 1801T528 1906L628 2000Z" />
<glyph unicode="&#xc1;" glyph-name="Aacute" horiz-adv-x="1342" d="M888 1522L1150 96L1319 69L1314 0H811L815 69L1000 93L938 460H347L173 94L356 69L351 0H-120L-112 69L27 93L735 1522H888ZM922 557L802 1273L789 1391L393 557H922ZM1031 2000L1126 1906Q1089
1834 987 1749T798 1614L748 1651L1031 2000Z" />
<glyph unicode="&#xc2;" glyph-name="Acircumflex" horiz-adv-x="1342" d="M888 1522L1150 96L1319 69L1314 0H811L815 69L1000 93L938 460H347L173 94L356 69L351 0H-120L-112 69L27 93L735 1522H888ZM922 557L802 1273L789 1391L393 557H922ZM823 2000H959L1180
1673L1127 1625L885 1882L548 1628L500 1675L823 2000Z" />
<glyph unicode="&#xc3;" glyph-name="Atilde" horiz-adv-x="1342" d="M888 1522L1150 96L1319 69L1314 0H811L815 69L1000 93L938 460H347L173 94L356 69L351 0H-120L-112 69L27 93L735 1522H888ZM922 557L802 1273L789 1391L393 557H922ZM521 1871T577 1918T711
1965Q758 1965 792 1946T871 1887Q911 1852 939 1835T1003 1818Q1056 1818 1089 1845T1156 1919L1201 1854Q1175 1789 1121 1739T989 1688Q939 1688 904 1708T825 1767Q788 1801 760 1818T694 1835Q644 1835 607 1809T535 1734L491 1800Q521 1871 577 1918Z" />
<glyph unicode="&#xc4;" glyph-name="Adieresis" horiz-adv-x="1342" d="M888 1522L1150 96L1319 69L1314 0H811L815 69L1000 93L938 460H347L173 94L356 69L351 0H-120L-112 69L27 93L735 1522H888ZM922 557L802 1273L789 1391L393 557H922ZM551 1870T567 1899T609
1945T662 1963Q703 1963 728 1937T753 1869Q753 1835 737 1806T694 1759T636 1742Q601 1742 576 1769T551 1837Q551 1870 567 1899ZM970 1872T987 1900T1030 1946T1082 1963Q1123 1963 1148 1937T1173 1870Q1173 1836 1157 1807T1114 1760T1056 1742Q1019 1742
995 1769T970 1838Q970 1872 987 1900Z" />
<glyph unicode="&#xc5;" glyph-name="Aring" horiz-adv-x="1342" d="M642 1533T595 1591T547 1731Q547 1811 598 1871T727 1964T885 1997Q964 1997 1024 1970T1116 1894T1148 1784Q1148 1709 1112 1652T1018 1560T890 1511L1150 96L1319 69L1314 0H811L815 69L1000
93L938 460H347L173 94L356 69L351 0H-120L-112 69L27 93L730 1513Q642 1533 595 1591ZM1047 1819T1025 1854T963 1910T873 1931Q817 1931 766 1908T681 1842T648 1740Q648 1692 669 1653T731 1592T827 1569Q884 1569 934 1592T1016 1661T1047 1776Q1047 1819 1025
1854ZM922 557L802 1273L789 1391L393 557H922Z" />
<glyph unicode="&#xc6;" glyph-name="AE" horiz-adv-x="1818" d="M835 93L884 500H379L173 94L399 69L394 0H-162L-149 69L17 93L729 1423L418 1442L429 1522H1757L1750 1228H1668L1634 1423L1153 1434L1076 834L1521 853L1511 721L1067 734L989 94L1582 113L1677
324L1757 299L1685 0H697L705 69L835 93ZM429 597H895L994 1416L848 1421L429 597Z" />
<glyph unicode="&#xc7;" glyph-name="Ccedilla" horiz-adv-x="1232" d="M628 1442T502 1325T312 1027T249 663Q249 513 288 381T415 164T639 79Q725 79 815 105T943 178L1006 402L1099 401L1058 70L1027 60Q944 33 863 14T686 -13Q703 -62 703 -134Q703 -244 668
-317T573 -426T436 -462Q396 -462 360 -454T306 -434L318 -314Q331 -321 360 -326T420 -331Q511 -331 560 -264T609 -84Q609 -49 602 -16Q426 -14 311 82T143 329T90 650Q90 910 191 1112T460 1426T826 1538Q943 1538 1022 1525T1178 1490L1221 1477L1160 1114H1070L1062
1389Q1022 1414 965 1428T809 1442Q628 1442 502 1325Z" />
<glyph unicode="&#xc8;" glyph-name="Egrave" horiz-adv-x="1222" d="M553 2000L825 1651L774 1614Q721 1644 655 1694T533 1801T453 1906L553 2000ZM184 93L350 1422L214 1441L223 1522H1141L1134 1212H1051L1017 1424L505 1435L429 840L910 846L901 721L419
734L334 94L955 113L1066 341L1147 316L1058 0H26L33 69L184 93Z" />
<glyph unicode="&#xc9;" glyph-name="Eacute" horiz-adv-x="1222" d="M956 2000L1051 1906Q1014 1834 912 1749T723 1614L673 1651L956 2000ZM184 93L350 1422L214 1441L223 1522H1141L1134 1212H1051L1017 1424L505 1435L429 840L910 846L901 721L419 734L334
94L955 113L1066 341L1147 316L1058 0H26L33 69L184 93Z" />
<glyph unicode="&#xca;" glyph-name="Ecircumflex" horiz-adv-x="1222" d="M184 93L350 1422L214 1441L223 1522H1141L1134 1212H1051L1017 1424L505 1435L429 840L910 846L901 721L419 734L334 94L955 113L1066 341L1147 316L1058 0H26L33 69L184 93ZM748 2000H884L1105
1673L1052 1625L810 1882L473 1628L425 1675L748 2000Z" />
<glyph unicode="&#xcb;" glyph-name="Edieresis" horiz-adv-x="1222" d="M476 1870T492 1899T534 1945T587 1963Q628 1963 653 1937T678 1869Q678 1835 662 1806T619 1759T561 1742Q526 1742 501 1769T476 1837Q476 1870 492 1899ZM895 1872T912 1900T955 1946T1007
1963Q1048 1963 1073 1937T1098 1870Q1098 1836 1082 1807T1039 1760T981 1742Q944 1742 920 1769T895 1838Q895 1872 912 1900ZM184 93L350 1422L214 1441L223 1522H1141L1134 1212H1051L1017 1424L505 1435L429 840L910 846L901 721L419 734L334 94L955 113L1066
341L1147 316L1058 0H26L33 69L184 93Z" />
<glyph unicode="&#xcc;" glyph-name="Igrave" horiz-adv-x="690" d="M203 94L370 1422L234 1441L244 1522H679L671 1441L521 1422L354 94L509 70L503 0H47L54 69L203 94ZM296 2000L568 1651L517 1614Q464 1644 398 1694T276 1801T196 1906L296 2000Z" />
<glyph unicode="&#xcd;" glyph-name="Iacute" horiz-adv-x="690" d="M203 94L370 1422L234 1441L244 1522H679L671 1441L521 1422L354 94L509 70L503 0H47L54 69L203 94ZM699 2000L794 1906Q757 1834 655 1749T466 1614L416 1651L699 2000Z" />
<glyph unicode="&#xce;" glyph-name="Icircumflex" horiz-adv-x="690" d="M203 94L370 1422L234 1441L244 1522H679L671 1441L521 1422L354 94L509 70L503 0H47L54 69L203 94ZM491 2000H627L848 1673L795 1625L553 1882L216 1628L168 1675L491 2000Z" />
<glyph unicode="&#xcf;" glyph-name="Idieresis" horiz-adv-x="690" d="M203 94L370 1422L234 1441L244 1522H679L671 1441L521 1422L354 94L509 70L503 0H47L54 69L203 94ZM219 1870T235 1899T277 1945T330 1963Q371 1963 396 1937T421 1869Q421 1835 405 1806T362
1759T304 1742Q269 1742 244 1769T219 1837Q219 1870 235 1899ZM638 1872T655 1900T698 1946T750 1963Q791 1963 816 1937T841 1870Q841 1836 825 1807T782 1760T724 1742Q687 1742 663 1769T638 1838Q638 1872 655 1900Z" />
<glyph unicode="&#xd0;" glyph-name="Eth" horiz-adv-x="1418" d="M270 836L344 1424L208 1443L217 1524H481Q525 1524 615 1532Q715 1540 770 1540Q1068 1540 1206 1373T1345 907Q1345 647 1247 435T971 101T566 -14Q502 -12 453 -7Q418 -4 351 -1T243 2H19L26
71L176 96L256 731H96L108 836H270ZM328 108Q388 97 472 89T608 81Q799 92 931 210T1128 515T1191 911Q1188 1102 1141 1219T993 1391T726 1446Q677 1446 613 1441T494 1427L419 836H847L835 731H406L328 108Z" />
<glyph unicode="&#xd1;" glyph-name="Ntilde" horiz-adv-x="1510" d="M563 1871T619 1918T753 1965Q800 1965 834 1946T913 1887Q953 1852 981 1835T1045 1818Q1098 1818 1131 1845T1198 1919L1243 1854Q1217 1789 1163 1739T1031 1688Q981 1688 946 1708T867
1767Q830 1801 802 1818T736 1835Q686 1835 649 1809T577 1734L533 1800Q563 1871 619 1918ZM177 92L350 1422L204 1441L217 1522H512L1029 374L1108 147L1259 1423L1098 1441L1108 1522H1541L1533 1441L1379 1422L1184 0H1039L526 1138L446 1367L305 94L476 70L469
0H30L36 69L177 92Z" />
<glyph unicode="&#xd2;" glyph-name="Ograve" horiz-adv-x="1382" d="M628 2000L900 1651L849 1614Q796 1644 730 1694T608 1801T528 1906L628 2000ZM972 1542T1084 1454T1251 1217T1306 885Q1306 629 1216 423T969 98T619 -20Q458 -20 345 66T174 302T116 637Q116
894 207 1101T456 1425T809 1542Q972 1542 1084 1454ZM1149 1030T1108 1162T985 1367T784 1441Q640 1441 523 1341T337 1063T269 660Q269 484 313 353T440 149T640 76Q783 76 899 176T1082 455T1149 855Q1149 1030 1108 1162Z" />
<glyph unicode="&#xd3;" glyph-name="Oacute" horiz-adv-x="1382" d="M1031 2000L1126 1906Q1089 1834 987 1749T798 1614L748 1651L1031 2000ZM972 1542T1084 1454T1251 1217T1306 885Q1306 629 1216 423T969 98T619 -20Q458 -20 345 66T174 302T116 637Q116
894 207 1101T456 1425T809 1542Q972 1542 1084 1454ZM1149 1030T1108 1162T985 1367T784 1441Q640 1441 523 1341T337 1063T269 660Q269 484 313 353T440 149T640 76Q783 76 899 176T1082 455T1149 855Q1149 1030 1108 1162Z" />
<glyph unicode="&#xd4;" glyph-name="Ocircumflex" horiz-adv-x="1382" d="M972 1542T1084 1454T1251 1217T1306 885Q1306 629 1216 423T969 98T619 -20Q458 -20 345 66T174 302T116 637Q116 894 207 1101T456 1425T809 1542Q972 1542 1084 1454ZM1149 1030T1108
1162T985 1367T784 1441Q640 1441 523 1341T337 1063T269 660Q269 484 313 353T440 149T640 76Q783 76 899 176T1082 455T1149 855Q1149 1030 1108 1162ZM824 2000H960L1181 1673L1128 1625L886 1882L549 1628L501 1675L824 2000Z" />
<glyph unicode="&#xd5;" glyph-name="Otilde" horiz-adv-x="1382" d="M521 1871T577 1918T711 1965Q758 1965 792 1946T871 1887Q911 1852 939 1835T1003 1818Q1056 1818 1089 1845T1156 1919L1201 1854Q1175 1789 1121 1739T989 1688Q939 1688 904 1708T825 1767Q788
1801 760 1818T694 1835Q644 1835 607 1809T535 1734L491 1800Q521 1871 577 1918ZM972 1542T1084 1454T1251 1217T1306 885Q1306 629 1216 423T969 98T619 -20Q458 -20 345 66T174 302T116 637Q116 894 207 1101T456 1425T809 1542Q972 1542 1084 1454ZM1149 1030T1108
1162T985 1367T784 1441Q640 1441 523 1341T337 1063T269 660Q269 484 313 353T440 149T640 76Q783 76 899 176T1082 455T1149 855Q1149 1030 1108 1162Z" />
<glyph unicode="&#xd6;" glyph-name="Odieresis" horiz-adv-x="1382" d="M551 1870T567 1899T609 1945T662 1963Q703 1963 728 1937T753 1869Q753 1835 737 1806T694 1759T636 1742Q601 1742 576 1769T551 1837Q551 1870 567 1899ZM970 1872T987 1900T1030 1946T1082
1963Q1123 1963 1148 1937T1173 1870Q1173 1836 1157 1807T1114 1760T1056 1742Q1019 1742 995 1769T970 1838Q970 1872 987 1900ZM972 1542T1084 1454T1251 1217T1306 885Q1306 629 1216 423T969 98T619 -20Q458 -20 345 66T174 302T116 637Q116 894 207 1101T456
1425T809 1542Q972 1542 1084 1454ZM1149 1030T1108 1162T985 1367T784 1441Q640 1441 523 1341T337 1063T269 660Q269 484 313 353T440 149T640 76Q783 76 899 176T1082 455T1149 855Q1149 1030 1108 1162Z" />
<glyph unicode="&#xd7;" glyph-name="multiply" horiz-adv-x="1370" d="M636 765L327 1103L428 1201L721 845L1099 1205L1178 1106L789 764L1099 426L998 327L704 684L322 326L243 425L636 765Z" />
<glyph unicode="&#xd8;" glyph-name="Oslash" horiz-adv-x="1386" d="M947 1544T1052 1478L1181 1693L1252 1658L1117 1428Q1211 1341 1258 1200T1306 887Q1306 631 1216 425T969 100T619 -18Q459 -18 344 69L200 -166L128 -130L281 126Q200 214 158 347T116 639Q116
896 207 1103T456 1427T809 1544Q947 1544 1052 1478ZM990 1364Q905 1443 784 1443Q640 1443 523 1343T337 1065T269 662Q269 533 293 427T363 243L990 1364ZM1149 1000T1121 1116T1038 1309L409 181Q503 78 640 78Q783 78 899 178T1082 457T1149 857Q1149 1000
1121 1116Z" />
<glyph unicode="&#xd9;" glyph-name="Ugrave" horiz-adv-x="1379" d="M611 2000L883 1651L832 1614Q779 1644 713 1694T591 1801T511 1906L611 2000ZM271 1423L131 1442L140 1522H586L578 1442L424 1421L315 607Q303 512 305 418Q308 252 387 161T620 69Q812 69
920 206T1063 627L1168 1421L1033 1441L1041 1522H1440L1432 1441L1301 1423L1196 627Q1166 393 1091 251T895 45T598 -20Q457 -20 358 33T208 187T153 426Q151 512 161 593L271 1423Z" />
<glyph unicode="&#xda;" glyph-name="Uacute" horiz-adv-x="1379" d="M1014 2000L1109 1906Q1072 1834 970 1749T781 1614L731 1651L1014 2000ZM271 1423L131 1442L140 1522H586L578 1442L424 1421L315 607Q303 512 305 418Q308 252 387 161T620 69Q812 69 920
206T1063 627L1168 1421L1033 1441L1041 1522H1440L1432 1441L1301 1423L1196 627Q1166 393 1091 251T895 45T598 -20Q457 -20 358 33T208 187T153 426Q151 512 161 593L271 1423Z" />
<glyph unicode="&#xdb;" glyph-name="Ucircumflex" horiz-adv-x="1379" d="M271 1423L131 1442L140 1522H586L578 1442L424 1421L315 607Q303 512 305 418Q308 252 387 161T620 69Q812 69 920 206T1063 627L1168 1421L1033 1441L1041 1522H1440L1432 1441L1301
1423L1196 627Q1166 393 1091 251T895 45T598 -20Q457 -20 358 33T208 187T153 426Q151 512 161 593L271 1423ZM806 2000H942L1163 1673L1110 1625L868 1882L531 1628L483 1675L806 2000Z" />
<glyph unicode="&#xdc;" glyph-name="Udieresis" horiz-adv-x="1379" d="M534 1870T550 1899T592 1945T645 1963Q686 1963 711 1937T736 1869Q736 1835 720 1806T677 1759T619 1742Q584 1742 559 1769T534 1837Q534 1870 550 1899ZM953 1872T970 1900T1013 1946T1065
1963Q1106 1963 1131 1937T1156 1870Q1156 1836 1140 1807T1097 1760T1039 1742Q1002 1742 978 1769T953 1838Q953 1872 970 1900ZM271 1423L131 1442L140 1522H586L578 1442L424 1421L315 607Q303 512 305 418Q308 252 387 161T620 69Q812 69 920 206T1063 627L1168
1421L1033 1441L1041 1522H1440L1432 1441L1301 1423L1196 627Q1166 393 1091 251T895 45T598 -20Q457 -20 358 33T208 187T153 426Q151 512 161 593L271 1423Z" />
<glyph unicode="&#xdd;" glyph-name="Yacute" horiz-adv-x="1173" d="M481 94L545 586L177 1422L59 1441L66 1522H542L533 1441L346 1422L592 822L638 685L719 822L1086 1422L928 1441L937 1522H1338L1330 1441L1219 1423L688 586L624 94L845 70L838 0H241L248
70L481 94ZM948 2000L1043 1906Q1006 1834 904 1749T715 1614L665 1651L948 2000Z" />
<glyph unicode="&#xde;" glyph-name="Thorn" horiz-adv-x="1227" d="M184 94L351 1430L215 1449L224 1530H660L651 1449L501 1430L471 1194Q525 1203 594 1208T721 1213Q945 1213 1063 1114T1182 829Q1182 675 1104 558T891 378T594 314Q453 314 362 321L334 94L502
70L496 0H27L34 69L184 94ZM374 418Q464 405 592 405Q729 405 828 454T980 590T1032 791Q1032 902 1000 973T892 1080T682 1117Q634 1117 566 1111T459 1098L374 418Z" />
<glyph unicode="&#xdf;" glyph-name="germandbls" horiz-adv-x="1186" d="M250 1206T337 1351T532 1540T773 1585Q864 1585 934 1555T1044 1464T1084 1314Q1084 1255 1061 1204T1006 1115T923 1024Q866 966 839 929T812 850Q812 818 838 777T928 654L950 626Q986
573 1009 532T1049 437T1066 324Q1066 232 1008 154T853 29T649 -17Q585 -17 520 1T419 40L439 191Q456 170 495 146T582 106T673 89Q785 90 847 139T910 300Q910 409 822 543Q756 626 715 691T674 811Q674 852 685 882T713 932T766 993Q847 1065 889 1135T931
1293Q931 1349 911 1397T847 1476T738 1506Q637 1506 569 1468T448 1314T364 977L232 0H84L213 927Q250 1206 337 1351Z" />
<glyph unicode="&#xe0;" glyph-name="agrave" horiz-adv-x="1173" d="M1062 100Q1053 84 1025 55T955 3T867 -20Q751 -20 751 98L752 117L762 191L764 204Q696 112 602 46T406 -20Q244 -20 166 96T88 412Q88 575 166 750T390 1044T728 1163Q774 1163 827 1153T925
1126L927 1128L1039 1162L905 173Q903 155 903 147Q903 115 916 100T944 85Q963 85 982 98T1035 144L1062 100ZM871 1017Q839 1041 796 1052T705 1064Q563 1064 458 967T299 722T244 431Q244 271 290 183T433 94Q500 94 568 133T691 229T782 342L871 1017ZM461
1729L763 1304L713 1255Q665 1285 587 1354T439 1495T346 1612L461 1729Z" />
<glyph unicode="&#xe1;" glyph-name="aacute" horiz-adv-x="1173" d="M1062 100Q1053 84 1025 55T955 3T867 -20Q751 -20 751 98L752 117L762 191L764 204Q696 112 602 46T406 -20Q244 -20 166 96T88 412Q88 575 166 750T390 1044T728 1163Q774 1163 827 1153T925
1126L927 1128L1039 1162L905 173Q903 155 903 147Q903 115 916 100T944 85Q963 85 982 98T1035 144L1062 100ZM871 1017Q839 1041 796 1052T705 1064Q563 1064 458 967T299 722T244 431Q244 271 290 183T433 94Q500 94 568 133T691 229T782 342L871 1017ZM945
1729L1053 1620Q1033 1586 963 1510T810 1360T671 1255L622 1304L945 1729Z" />
<glyph unicode="&#xe2;" glyph-name="acircumflex" horiz-adv-x="1173" d="M1062 100Q1053 84 1025 55T955 3T867 -20Q751 -20 751 98L752 117L762 191L764 204Q696 112 602 46T406 -20Q244 -20 166 96T88 412Q88 575 166 750T390 1044T728 1163Q774 1163 827
1153T925 1126L927 1128L1039 1162L905 173Q903 155 903 147Q903 115 916 100T944 85Q963 85 982 98T1035 144L1062 100ZM871 1017Q839 1041 796 1052T705 1064Q563 1064 458 967T299 722T244 431Q244 271 290 183T433 94Q500 94 568 133T691 229T782 342L871 1017ZM707
1650H843L1046 1281L989 1234L756 1531L408 1236L363 1282L707 1650Z" />
<glyph unicode="&#xe3;" glyph-name="atilde" horiz-adv-x="1173" d="M1062 100Q1053 84 1025 55T955 3T867 -20Q751 -20 751 98L752 117L762 191L764 204Q696 112 602 46T406 -20Q244 -20 166 96T88 412Q88 575 166 750T390 1044T728 1163Q774 1163 827 1153T925
1126L927 1128L1039 1162L905 173Q903 155 903 147Q903 115 916 100T944 85Q963 85 982 98T1035 144L1062 100ZM871 1017Q839 1041 796 1052T705 1064Q563 1064 458 967T299 722T244 431Q244 271 290 183T433 94Q500 94 568 133T691 229T782 342L871 1017ZM402
1500T439 1537T524 1598T619 1622Q665 1622 696 1602T768 1541Q801 1508 824 1492T878 1476Q930 1476 966 1509T1039 1595L1085 1521Q1068 1473 1033 1433T949 1370T849 1346Q810 1346 781 1357T734 1385T690 1428Q659 1461 636 1476T579 1492Q538 1492 496 1461T417
1388L380 1457Q402 1500 439 1537Z" />
<glyph unicode="&#xe4;" glyph-name="adieresis" horiz-adv-x="1173" d="M1062 100Q1053 84 1025 55T955 3T867 -20Q751 -20 751 98L752 117L762 191L764 204Q696 112 602 46T406 -20Q244 -20 166 96T88 412Q88 575 166 750T390 1044T728 1163Q774 1163 827 1153T925
1126L927 1128L1039 1162L905 173Q903 155 903 147Q903 115 916 100T944 85Q963 85 982 98T1035 144L1062 100ZM871 1017Q839 1041 796 1052T705 1064Q563 1064 458 967T299 722T244 431Q244 271 290 183T433 94Q500 94 568 133T691 229T782 342L871 1017ZM434
1531T449 1560T491 1606T546 1623Q587 1623 612 1597T637 1531Q637 1496 621 1467T578 1420T520 1402Q484 1402 459 1429T434 1497Q434 1531 449 1560ZM856 1530T871 1559T912 1606T967 1623Q1009 1623 1034 1597T1059 1531Q1059 1496 1043 1467T1000 1420T942
1402Q906 1402 881 1428T856 1495Q856 1530 871 1559Z" />
<glyph unicode="&#xe5;" glyph-name="aring" horiz-adv-x="1173" d="M1062 100Q1053 84 1025 55T955 3T867 -20Q751 -20 751 98L752 117L762 191L764 204Q696 112 602 46T406 -20Q244 -20 166 96T88 412Q88 575 166 750T390 1044T728 1163Q774 1163 827 1153T925
1126L927 1128L1039 1162L905 173Q903 155 903 147Q903 115 916 100T944 85Q963 85 982 98T1035 144L1062 100ZM871 1017Q839 1041 796 1052T705 1064Q563 1064 458 967T299 722T244 431Q244 271 290 183T433 94Q500 94 568 133T691 229T782 342L871 1017ZM466
1584T516 1650T644 1747T806 1778Q931 1778 1000 1721T1070 1560Q1070 1460 1022 1392T898 1290T738 1256Q606 1256 536 1317T466 1486Q466 1584 516 1650ZM971 1620T923 1666T794 1713Q698 1713 633 1662T567 1501Q567 1450 589 1409T653 1344T747 1320Q844 1320
907 1373T971 1543Q971 1620 923 1666Z" />
<glyph unicode="&#xe6;" glyph-name="ae" horiz-adv-x="1736" d="M88 573T166 749T391 1043T730 1162Q778 1162 831 1152T931 1126L933 1128L1046 1162L1017 997Q1095 1076 1187 1119T1378 1162Q1465 1162 1524 1129T1613 1038T1642 910Q1642 766 1519 667T1232
519T947 467Q945 427 945 408Q945 92 1177 92Q1269 92 1368 132T1553 254L1589 186Q1557 142 1492 94T1340 13T1160 -20Q993 -20 904 69T794 317Q754 233 693 157T553 30T389 -20Q238 -20 163 93T88 410Q88 573 166 749ZM1486 983T1446 1026T1329 1069Q1226 1069
1144 989T1012 790T951 557Q1069 561 1194 603T1402 722T1486 899Q1486 983 1446 1026ZM885 1010Q823 1064 707 1064Q564 1064 459 966T299 719T244 428Q244 258 288 176T415 94Q494 94 568 149T699 280T788 423V437Q789 550 826 668L885 1010Z" />
<glyph unicode="&#xe7;" glyph-name="ccedilla" horiz-adv-x="890" d="M715 1163T776 1150T880 1115L836 960Q829 966 815 976Q771 1007 721 1026T625 1045Q507 1045 419 971T283 762T235 453Q235 276 299 184T478 92Q535 92 582 107T670 147T768 217L799 151Q751
97 680 50T511 -14Q529 -66 529 -136Q529 -246 494 -319T399 -428T262 -464Q222 -464 186 -456T132 -436L144 -316Q157 -323 186 -328T246 -333Q337 -333 386 -266T435 -86Q435 -47 429 -20Q318 -18 239 36T118 192T76 430Q76 594 145 764T348 1049T660 1163Q715
1163 776 1150Z" />
<glyph unicode="&#xe8;" glyph-name="egrave" horiz-adv-x="1051" d="M768 1163T831 1131T925 1042T957 913Q957 769 832 670T539 520T251 467Q249 437 249 422Q249 340 274 265T357 141T504 92Q592 92 687 132T864 254L901 186Q869 142 807 94T660 13T486 -20Q352
-20 264 41T134 203T92 420Q92 611 169 782T380 1058T676 1163Q768 1163 831 1131ZM802 983T760 1026T641 1069Q535 1069 451 989T317 790T255 557Q375 561 502 603T716 723T802 900Q802 983 760 1026ZM382 1729L684 1304L634 1255Q586 1285 508 1354T360 1495T267
1612L382 1729Z" />
<glyph unicode="&#xe9;" glyph-name="eacute" horiz-adv-x="1051" d="M866 1729L974 1620Q954 1586 884 1510T731 1360T592 1255L543 1304L866 1729ZM768 1163T831 1131T925 1042T957 913Q957 769 832 670T539 520T251 467Q249 437 249 422Q249 340 274 265T357
141T504 92Q592 92 687 132T864 254L901 186Q869 142 807 94T660 13T486 -20Q352 -20 264 41T134 203T92 420Q92 611 169 782T380 1058T676 1163Q768 1163 831 1131ZM802 983T760 1026T641 1069Q535 1069 451 989T317 790T255 557Q375 561 502 603T716 723T802
900Q802 983 760 1026Z" />
<glyph unicode="&#xea;" glyph-name="ecircumflex" horiz-adv-x="1051" d="M628 1650H764L967 1281L910 1234L677 1531L329 1236L284 1282L628 1650ZM768 1163T831 1131T925 1042T957 913Q957 769 832 670T539 520T251 467Q249 437 249 422Q249 340 274 265T357
141T504 92Q592 92 687 132T864 254L901 186Q869 142 807 94T660 13T486 -20Q352 -20 264 41T134 203T92 420Q92 611 169 782T380 1058T676 1163Q768 1163 831 1131ZM802 983T760 1026T641 1069Q535 1069 451 989T317 790T255 557Q375 561 502 603T716 723T802
900Q802 983 760 1026Z" />
<glyph unicode="&#xeb;" glyph-name="edieresis" horiz-adv-x="1051" d="M355 1531T370 1560T412 1606T467 1623Q508 1623 533 1597T558 1531Q558 1496 542 1467T499 1420T441 1402Q405 1402 380 1429T355 1497Q355 1531 370 1560ZM777 1530T792 1559T833 1606T888
1623Q930 1623 955 1597T980 1531Q980 1496 964 1467T921 1420T863 1402Q827 1402 802 1428T777 1495Q777 1530 792 1559ZM768 1163T831 1131T925 1042T957 913Q957 769 832 670T539 520T251 467Q249 437 249 422Q249 340 274 265T357 141T504 92Q592 92 687 132T864
254L901 186Q869 142 807 94T660 13T486 -20Q352 -20 264 41T134 203T92 420Q92 611 169 782T380 1058T676 1163Q768 1163 831 1131ZM802 983T760 1026T641 1069Q535 1069 451 989T317 790T255 557Q375 561 502 603T716 723T802 900Q802 983 760 1026Z" />
<glyph unicode="&#xec;" glyph-name="igrave" horiz-adv-x="633" d="M168 1052L181 1117L431 1159L471 1138L330 158Q328 142 328 136Q328 111 337 98T359 85Q382 85 406 101T467 156L493 112Q479 91 449 61T375 5T280 -20Q231 -20 202 4T172 83Q172 119 189 240T239
580Q277 825 302 1012L168 1052ZM410 1729L712 1304L662 1255Q614 1285 536 1354T388 1495T295 1612L410 1729Z" />
<glyph unicode="&#xed;" glyph-name="iacute" horiz-adv-x="633" d="M637 1729L745 1620Q725 1586 655 1510T502 1360T363 1255L314 1304L637 1729ZM168 1052L181 1117L431 1159L471 1138L330 158Q328 142 328 136Q328 111 337 98T359 85Q382 85 406 101T467 156L493
112Q479 91 449 61T375 5T280 -20Q231 -20 202 4T172 83Q172 119 189 240T239 580Q277 825 302 1012L168 1052Z" />
<glyph unicode="&#xee;" glyph-name="icircumflex" horiz-adv-x="633" d="M399 1650H535L738 1281L681 1234L448 1531L100 1236L55 1282L399 1650ZM168 1052L181 1117L431 1159L471 1138L330 158Q328 142 328 136Q328 111 337 98T359 85Q382 85 406 101T467 156L493
112Q479 91 449 61T375 5T280 -20Q231 -20 202 4T172 83Q172 119 189 240T239 580Q277 825 302 1012L168 1052Z" />
<glyph unicode="&#xef;" glyph-name="idieresis" horiz-adv-x="633" d="M126 1531T141 1560T183 1606T238 1623Q279 1623 304 1597T329 1531Q329 1496 313 1467T270 1420T212 1402Q176 1402 151 1429T126 1497Q126 1531 141 1560ZM548 1530T563 1559T604 1606T659
1623Q701 1623 726 1597T751 1531Q751 1496 735 1467T692 1420T634 1402Q598 1402 573 1428T548 1495Q548 1530 563 1559ZM168 1052L181 1117L431 1159L471 1138L330 158Q328 142 328 136Q328 111 337 98T359 85Q382 85 406 101T467 156L493 112Q479 91 449 61T375
5T280 -20Q231 -20 202 4T172 83Q172 119 189 240T239 580Q277 825 302 1012L168 1052Z" />
<glyph unicode="&#xf0;" glyph-name="eth" horiz-adv-x="1156" d="M564 1520Q505 1560 447 1589T342 1628L376 1725Q428 1713 500 1680T640 1604Q678 1647 730 1709T798 1792L874 1718Q858 1700 814 1650T724 1548L750 1528Q913 1389 988 1213T1063 822Q1063 588
996 397T796 93T480 -20Q354 -20 265 43T132 208T87 421Q87 627 165 784T370 1025T639 1110Q726 1110 799 1081T908 996Q876 1151 826 1249T674 1437L646 1460L484 1278L406 1350L564 1520ZM891 609T895 662T899 753Q899 775 898 783Q893 823 865 879T779 977T637
1020Q518 1020 430 933T295 706T248 412Q248 318 277 240T362 114T498 67Q594 67 675 133T810 312T884 566Q891 609 895 662Z" />
<glyph unicode="&#xf1;" glyph-name="ntilde" horiz-adv-x="1258" d="M173 1049L187 1121L392 1163L430 1143L402 882Q492 1002 613 1082T849 1163Q961 1163 1019 1095T1077 868Q1077 814 1067 744T1037 574L1024 505L1013 445Q996 350 985 282T971 157L970 138Q970
113 976 99T994 85Q1034 85 1092 139L1117 95Q1108 79 1078 51T1004 1T914 -21Q812 -21 812 85Q812 133 823 203T854 376L869 457L881 521Q902 634 913 712T925 859Q925 928 912 966T868 1021T784 1037Q724 1037 651 998T508 891T384 745L285 0H137L271 1002L173
1049ZM384 1500T421 1537T506 1598T601 1622Q647 1622 678 1602T750 1541Q783 1508 806 1492T860 1476Q912 1476 948 1509T1021 1595L1067 1521Q1050 1473 1015 1433T931 1370T831 1346Q792 1346 763 1357T716 1385T672 1428Q641 1461 618 1476T561 1492Q520 1492
478 1461T399 1388L362 1457Q384 1500 421 1537Z" />
<glyph unicode="&#xf2;" glyph-name="ograve" horiz-adv-x="1143" d="M780 1163T868 1108T1003 947T1049 694Q1049 515 977 350T775 83T484 -20Q357 -20 268 35T133 195T87 448Q87 629 160 794T362 1061T653 1163Q780 1163 868 1108ZM890 867T824 966T626 1065Q507
1065 420 972T289 738T244 453Q244 273 312 176T511 78Q628 78 714 171T845 405T890 688Q890 867 824 966ZM400 1729L702 1304L652 1255Q604 1285 526 1354T378 1495T285 1612L400 1729Z" />
<glyph unicode="&#xf3;" glyph-name="oacute" horiz-adv-x="1143" d="M883 1729L991 1620Q971 1586 901 1510T748 1360T609 1255L560 1304L883 1729ZM780 1163T868 1108T1003 947T1049 694Q1049 515 977 350T775 83T484 -20Q357 -20 268 35T133 195T87 448Q87
629 160 794T362 1061T653 1163Q780 1163 868 1108ZM890 867T824 966T626 1065Q507 1065 420 972T289 738T244 453Q244 273 312 176T511 78Q628 78 714 171T845 405T890 688Q890 867 824 966Z" />
<glyph unicode="&#xf4;" glyph-name="ocircumflex" horiz-adv-x="1143" d="M660 1650H796L999 1281L942 1234L709 1531L361 1236L316 1282L660 1650ZM780 1163T868 1108T1003 947T1049 694Q1049 515 977 350T775 83T484 -20Q357 -20 268 35T133 195T87 448Q87
629 160 794T362 1061T653 1163Q780 1163 868 1108ZM890 867T824 966T626 1065Q507 1065 420 972T289 738T244 453Q244 273 312 176T511 78Q628 78 714 171T845 405T890 688Q890 867 824 966Z" />
<glyph unicode="&#xf5;" glyph-name="otilde" horiz-adv-x="1143" d="M780 1163T868 1108T1003 947T1049 694Q1049 515 977 350T775 83T484 -20Q357 -20 268 35T133 195T87 448Q87 629 160 794T362 1061T653 1163Q780 1163 868 1108ZM890 867T824 966T626 1065Q507
1065 420 972T289 738T244 453Q244 273 312 176T511 78Q628 78 714 171T845 405T890 688Q890 867 824 966ZM341 1500T378 1537T463 1598T558 1622Q604 1622 635 1602T707 1541Q740 1508 763 1492T817 1476Q869 1476 905 1509T978 1595L1024 1521Q1007 1473 972
1433T888 1370T788 1346Q749 1346 720 1357T673 1385T629 1428Q598 1461 575 1476T518 1492Q477 1492 435 1461T356 1388L319 1457Q341 1500 378 1537Z" />
<glyph unicode="&#xf6;" glyph-name="odieresis" horiz-adv-x="1143" d="M387 1531T402 1560T444 1606T499 1623Q540 1623 565 1597T590 1531Q590 1496 574 1467T531 1420T473 1402Q437 1402 412 1429T387 1497Q387 1531 402 1560ZM809 1530T824 1559T865 1606T920
1623Q962 1623 987 1597T1012 1531Q1012 1496 996 1467T953 1420T895 1402Q859 1402 834 1428T809 1495Q809 1530 824 1559ZM780 1163T868 1108T1003 947T1049 694Q1049 515 977 350T775 83T484 -20Q357 -20 268 35T133 195T87 448Q87 629 160 794T362 1061T653
1163Q780 1163 868 1108ZM890 867T824 966T626 1065Q507 1065 420 972T289 738T244 453Q244 273 312 176T511 78Q628 78 714 171T845 405T890 688Q890 867 824 966Z" />
<glyph unicode="&#xf7;" glyph-name="divide" horiz-adv-x="1370" d="M654 1176T674 1207T726 1256T789 1274Q835 1274 858 1251T881 1187Q881 1146 861 1114T810 1064T747 1046Q707 1046 681 1070T654 1137Q654 1176 674 1207ZM1154 837L1140 712H272L285 837H1154ZM742
501T764 478T787 416Q787 375 768 342T718 291T654 273Q614 273 588 296T562 363Q562 401 582 433T633 483T697 501Q742 501 764 478Z" />
<glyph unicode="&#xf8;" glyph-name="oslash" horiz-adv-x="1143" d="M751 1165T831 1129L931 1292L1002 1252L901 1086Q973 1027 1011 928T1049 696Q1049 517 977 352T775 85T484 -18Q366 -18 281 29L177 -134L106 -94L215 78Q152 138 120 232T87 450Q87 631
160 796T362 1063T653 1165Q751 1165 831 1129ZM773 1021Q713 1067 626 1067Q507 1067 420 974T289 740T244 455Q244 291 300 196L773 1021ZM890 874T822 970L819 965L345 139Q410 80 511 80Q628 80 714 173T845 407T890 690Q890 874 822 970Z" />
<glyph unicode="&#xf9;" glyph-name="ugrave" horiz-adv-x="1202" d="M255 998L158 1045L171 1116L376 1159L415 1138L347 599Q341 554 337 530Q325 439 320 387T314 279Q314 204 333 163T386 106T472 90Q528 90 591 122T710 205T806 314L898 1017L915 1151H1062L932
159Q930 139 930 132Q930 110 937 99T956 87Q978 87 1005 103T1069 158L1094 113Q1082 94 1050 63T971 7T874 -18Q829 -18 804 8T779 81Q779 100 783 119L787 158L790 196Q716 103 619 42T409 -20Q290 -20 228 42T165 254Q165 314 174 394T201 606L255 998ZM408
1729L710 1304L660 1255Q612 1285 534 1354T386 1495T293 1612L408 1729Z" />
<glyph unicode="&#xfa;" glyph-name="uacute" horiz-adv-x="1202" d="M891 1729L999 1620Q979 1586 909 1510T756 1360T617 1255L568 1304L891 1729ZM255 998L158 1045L171 1116L376 1159L415 1138L347 599Q341 554 337 530Q325 439 320 387T314 279Q314 204 333
163T386 106T472 90Q528 90 591 122T710 205T806 314L898 1017L915 1151H1062L932 159Q930 139 930 132Q930 110 937 99T956 87Q978 87 1005 103T1069 158L1094 113Q1082 94 1050 63T971 7T874 -18Q829 -18 804 8T779 81Q779 100 783 119L787 158L790 196Q716 103
619 42T409 -20Q290 -20 228 42T165 254Q165 314 174 394T201 606L255 998Z" />
<glyph unicode="&#xfb;" glyph-name="ucircumflex" horiz-adv-x="1202" d="M653 1650H789L992 1281L935 1234L702 1531L354 1236L309 1282L653 1650ZM255 998L158 1045L171 1116L376 1159L415 1138L347 599Q341 554 337 530Q325 439 320 387T314 279Q314 204 333
163T386 106T472 90Q528 90 591 122T710 205T806 314L898 1017L915 1151H1062L932 159Q930 139 930 132Q930 110 937 99T956 87Q978 87 1005 103T1069 158L1094 113Q1082 94 1050 63T971 7T874 -18Q829 -18 804 8T779 81Q779 100 783 119L787 158L790 196Q716 103
619 42T409 -20Q290 -20 228 42T165 254Q165 314 174 394T201 606L255 998Z" />
<glyph unicode="&#xfc;" glyph-name="udieresis" horiz-adv-x="1202" d="M380 1531T395 1560T437 1606T492 1623Q533 1623 558 1597T583 1531Q583 1496 567 1467T524 1420T466 1402Q430 1402 405 1429T380 1497Q380 1531 395 1560ZM802 1530T817 1559T858 1606T913
1623Q955 1623 980 1597T1005 1531Q1005 1496 989 1467T946 1420T888 1402Q852 1402 827 1428T802 1495Q802 1530 817 1559ZM255 998L158 1045L171 1116L376 1159L415 1138L347 599Q341 554 337 530Q325 439 320 387T314 279Q314 204 333 163T386 106T472 90Q528
90 591 122T710 205T806 314L898 1017L915 1151H1062L932 159Q930 139 930 132Q930 110 937 99T956 87Q978 87 1005 103T1069 158L1094 113Q1082 94 1050 63T971 7T874 -18Q829 -18 804 8T779 81Q779 100 783 119L787 158L790 196Q716 103 619 42T409 -20Q290 -20
228 42T165 254Q165 314 174 394T201 606L255 998Z" />
<glyph unicode="&#xfd;" glyph-name="yacute" horiz-adv-x="1071" d="M187 1015T176 1030T146 1045Q127 1045 107 1032T55 988L31 1038Q42 1056 70 1084T140 1136T224 1159Q267 1159 291 1143T326 1098T345 1022L449 258L477 -27Q496 9 564 140Q641 291 649 303L706
418Q765 536 798 612T855 775T878 949Q878 979 860 1019Q852 1039 848 1051T844 1076Q844 1118 864 1138T918 1158Q969 1158 997 1112T1025 978Q1025 884 991 777T910 574T794 349L762 290Q650 60 558 -94T398 -329Q350 -397 262 -451T51 -505Q11 -505 -38 -496T-122
-476L-86 -349Q-82 -351 -60 -361T0 -380T81 -388Q136 -388 199 -357T328 -256T446 -79H376L195 974Q187 1015 176 1030ZM844 1729L952 1620Q932 1586 862 1510T709 1360T570 1255L521 1304L844 1729Z" />
<glyph unicode="&#xfe;" glyph-name="thorn" horiz-adv-x="1176" d="M238 1550L254 1618L458 1650L499 1627L411 973Q467 1051 555 1107T747 1163Q859 1163 935 1108T1049 956T1087 730Q1087 567 1010 392T789 98T454 -20Q375 -20 274 8L263 -109L202 -520H59L131
-5L334 1516L238 1550ZM297 130Q361 78 478 78Q622 78 724 179T879 430T931 719Q931 875 877 961T723 1048Q653 1048 587 1014T471 931T392 833L297 130Z" />
<glyph unicode="&#xff;" glyph-name="ydieresis" horiz-adv-x="1071" d="M187 1015T176 1030T146 1045Q127 1045 107 1032T55 988L31 1038Q42 1056 70 1084T140 1136T224 1159Q267 1159 291 1143T326 1098T345 1022L449 258L477 -27Q496 9 564 140Q641 291 649
303L706 418Q765 536 798 612T855 775T878 949Q878 979 860 1019Q852 1039 848 1051T844 1076Q844 1118 864 1138T918 1158Q969 1158 997 1112T1025 978Q1025 884 991 777T910 574T794 349L762 290Q650 60 558 -94T398 -329Q350 -397 262 -451T51 -505Q11 -505
-38 -496T-122 -476L-86 -349Q-82 -351 -60 -361T0 -380T81 -388Q136 -388 199 -357T328 -256T446 -79H376L195 974Q187 1015 176 1030ZM333 1531T348 1560T390 1606T445 1623Q486 1623 511 1597T536 1531Q536 1496 520 1467T477 1420T419 1402Q383 1402 358 1429T333
1497Q333 1531 348 1560ZM755 1530T770 1559T811 1606T866 1623Q908 1623 933 1597T958 1531Q958 1496 942 1467T899 1420T841 1402Q805 1402 780 1428T755 1495Q755 1530 770 1559Z" />
<glyph unicode="&#x2013;" glyph-name="endash" horiz-adv-x="1550" d="M1364 836L1342 710H239L262 836H1364Z" />
<glyph unicode="&#x2014;" glyph-name="emdash" horiz-adv-x="2045" d="M1859 836L1837 710H239L261 836H1859Z" />
<glyph unicode="&#x2018;" glyph-name="quoteleft" horiz-adv-x="682" d="M217 1335T271 1436T410 1607T595 1721L627 1664L626 1647Q572 1628 515 1572T421 1439T383 1281Q383 1210 416 1155T509 1088L505 1055L395 937Q303 962 260 1040T217 1212Q217 1335 271 1436Z" />
<glyph unicode="&#x2019;" glyph-name="quoteright" horiz-adv-x="682" d="M645 1322T591 1221T452 1050T267 936L235 993L236 1010Q290 1029 347 1085T441 1218T479 1376Q479 1447 446 1502T353 1569L357 1602L467 1720Q559 1695 602 1617T645 1445Q645 1322 591 1221Z" />
<glyph unicode="&#x201a;" glyph-name="quotesinglbase" horiz-adv-x="682" d="M461 -117T407 -218T268 -389T83 -503L51 -446L52 -429Q106 -410 163 -354T257 -221T295 -63Q295 8 262 63T169 130L173 163L283 281Q375 256 418 178T461 6Q461 -117 407 -218Z" />
<glyph unicode="&#x201c;" glyph-name="quotedblleft" horiz-adv-x="1161" d="M696 1335T750 1436T889 1607T1074 1721L1106 1664L1105 1647Q1051 1628 994 1572T900 1439T862 1281Q862 1210 895 1155T988 1088L984 1055L874 937Q782 962 739 1040T696 1212Q696
1335 750 1436ZM217 1335T271 1436T410 1607T595 1721L627 1664L626 1647Q572 1628 515 1572T421 1439T383 1281Q383 1210 416 1155T509 1088L505 1055L395 937Q303 962 260 1040T217 1212Q217 1335 271 1436Z" />
<glyph unicode="&#x201d;" glyph-name="quotedblright" horiz-adv-x="1161" d="M645 1322T591 1221T452 1050T267 936L235 993L236 1010Q290 1029 347 1085T441 1218T479 1376Q479 1447 446 1502T353 1569L357 1602L467 1720Q559 1695 602 1617T645 1445Q645 1322
591 1221ZM1124 1322T1070 1221T931 1050T746 936L714 993L715 1010Q769 1029 826 1085T920 1218T958 1376Q958 1447 925 1502T832 1569L836 1602L946 1720Q1038 1695 1081 1617T1124 1445Q1124 1322 1070 1221Z" />
<glyph unicode="&#x201e;" glyph-name="quotedblbase" horiz-adv-x="1161" d="M461 -117T407 -218T268 -389T83 -503L51 -446L52 -429Q106 -410 163 -354T257 -221T295 -63Q295 8 262 63T169 130L173 163L283 281Q375 256 418 178T461 6Q461 -117 407 -218ZM940
-117T886 -218T747 -389T562 -503L530 -446L531 -429Q585 -410 642 -354T736 -221T774 -63Q774 8 741 63T648 130L652 163L762 281Q854 256 897 178T940 6Q940 -117 886 -218Z" />
<glyph unicode="&#x2022;" glyph-name="bullet" horiz-adv-x="858" d="M281 760T306 805T376 877T475 904Q514 904 545 884T594 831T612 757Q612 701 587 655T517 581T417 554Q380 554 349 575T299 631T281 705Q281 760 306 805Z" />
<glyph unicode="&#x2039;" glyph-name="guilsinglleft" horiz-adv-x="1190" d="M956 1086L985 993L429 614L881 242L828 152L245 547L261 674L956 1086Z" />
<glyph unicode="&#x203a;" glyph-name="guilsinglright" horiz-adv-x="1190" d="M165 152L136 245L692 624L240 996L293 1086L876 691L860 564L165 152Z" />
</font>
</defs>
</svg>
