<?xml version="1.0" standalone="no"?>
<!DOCTYPE svg PUBLIC "-//W3C//DTD SVG 1.1//EN" "http://www.w3.org/Graphics/SVG/1.1/DTD/svg11.dtd">
<svg xmlns="http://www.w3.org/2000/svg">
<defs >
<font id="Merriweather" horiz-adv-x="1279" ><font-face
    font-family="Merriweather"
    units-per-em="2048"
    panose-1="0 0 8 0 0 0 0 0 0 0"
    ascent="2014"
    descent="-560"
    alphabetic="0" />
<glyph unicode=" " glyph-name="space" horiz-adv-x="485" />
<glyph unicode="!" glyph-name="exclam" horiz-adv-x="703" d="M673 1778L422 510H247L378 1778H673ZM368 301T403 263T438 166Q438 107 411 65T341 1T251 -21Q198 -21 162 16T126 114Q126 168 151 210T217 277T302 301Q368 301 403 263Z" />
<glyph unicode="&quot;" glyph-name="quotedbl" horiz-adv-x="1063" d="M560 1687L394 966H220L299 1687H560ZM1061 1687L895 966H721L800 1687H1061Z" />
<glyph unicode="#" glyph-name="numbersign" horiz-adv-x="1405" d="M111 365L127 522H336L389 871H185L197 1025H412L465 1357H664L613 1025H890L946 1357H1145L1091 1025H1306L1294 871H1068L1014 522H1224L1208 365H986L929 0H735L786 365H508L446 0H250L308
365H111ZM867 871H590L536 522H814L867 871Z" />
<glyph unicode="$" glyph-name="dollar" horiz-adv-x="1205" d="M282 371L296 172Q341 137 399 116T523 95Q651 95 727 156T803 328Q803 397 773 450T687 550T538 655Q433 722 363 781T248 919T203 1101Q203 1227 263 1322T430 1472T673 1538L703 1725H884L853
1536Q949 1528 1017 1508T1128 1463L1077 1186H919L888 1369Q850 1395 800 1409T696 1424Q631 1424 578 1400T493 1327T461 1211Q461 1138 493 1082T584 979T742 870Q842 808 911 751T1024 615T1069 438Q1069 316 1012 218T846 57T586 -19L552 -230H372L406 -19Q288
-9 188 18T57 71L112 371H282Z" />
<glyph unicode="%" glyph-name="percent" horiz-adv-x="1911" d="M1519 1530L572 0H379L1326 1530H1519ZM178 1162T233 1261T386 1423T602 1486Q750 1486 825 1404T901 1185Q901 1074 847 971T694 804T472 739Q380 739 314 780T213 894T178 1055Q178 1162 233
1261ZM688 1272T660 1325T574 1378Q512 1378 469 1327T404 1201T382 1057Q382 959 411 904T501 848Q561 848 603 902T667 1033T688 1177Q688 1272 660 1325ZM1598 806T1673 724T1749 506Q1749 395 1695 292T1542 125T1320 60Q1227 60 1161 101T1060 215T1025 376Q1025
482 1080 582T1233 744T1450 806Q1598 806 1673 724ZM1409 169T1451 222T1514 353T1535 498Q1535 594 1507 646T1422 699Q1360 699 1317 648T1252 522T1230 378Q1230 280 1259 225T1349 169Q1409 169 1451 222Z" />
<glyph unicode="&amp;" glyph-name="ampersand" horiz-adv-x="1690" d="M1014 800T1053 815T1151 831Q1192 831 1253 822Q1327 812 1378 812Q1434 812 1468 825T1522 873T1551 968H1648Q1656 924 1656 872Q1656 758 1607 685T1463 611Q1435 611 1421 612Q1423
586 1423 569Q1423 452 1376 354T1241 180Q1263 165 1286 153Q1322 137 1371 127T1463 117L1484 118L1479 10Q1425 -7 1372 -13T1240 -20Q1100 -20 999 38Q821 -28 627 -28Q468 -28 340 15T136 145T61 352Q61 460 110 538T239 671T435 778Q398 863 374 954T350
1119Q350 1250 415 1348T595 1498T854 1551Q986 1551 1072 1511T1199 1405T1240 1258Q1240 1147 1178 1065T1025 928T782 800L741 780Q834 613 919 501T1114 286L1123 276Q1191 374 1191 525Q1191 572 1183 634Q1172 635 1149 635Q1104 635 1062 624T996 597V782Q1014
800 1053 815ZM823 956T898 1036T974 1239Q974 1321 944 1378T839 1436Q728 1436 674 1362T620 1167Q620 1030 684 888Q823 956 898 1036ZM809 200T746 278T636 429T521 617L504 646Q428 590 387 526T345 378Q345 289 386 226T499 131T662 99Q796 99 890 125Q809
200 746 278Z" />
<glyph unicode="&apos;" glyph-name="quotesingle" horiz-adv-x="562" d="M556 1687L390 966H216L295 1687H556Z" />
<glyph unicode="(" glyph-name="parenleft" horiz-adv-x="871" d="M238 990T362 1213T622 1577T830 1758L939 1682Q882 1645 783 1524T589 1207T456 773Q447 711 442 639T436 512Q436 311 481 148T587 -119T693 -261L568 -336H551Q494 -297 410 -192T257 93T188
505Q188 609 203 724Q238 990 362 1213Z" />
<glyph unicode=")" glyph-name="parenright" horiz-adv-x="876" d="M639 438T515 215T255 -149T47 -330L-62 -254Q-5 -217 94 -96T288 221T421 655Q430 717 435 789T441 916Q441 1117 396 1280T290 1547T184 1689L309 1764H326Q383 1725 467 1620T620 1335T689
923Q689 820 674 704Q639 438 515 215Z" />
<glyph unicode="*" glyph-name="asterisk" horiz-adv-x="1366" d="M580 1123L664 1151L588 1177L278 1313L408 1500L662 1289L721 1234L713 1318L706 1664L932 1663L851 1316L828 1236L896 1290L1197 1502L1285 1312L950 1177L866 1149L943 1122L1252 987L1123
800L868 1011L809 1068L817 982L824 636L598 637L678 984L702 1065L634 1009L334 798L246 988L580 1123Z" />
<glyph unicode="+" glyph-name="plus" horiz-adv-x="1344" d="M599 689L458 682H250L268 862H488L626 851L639 1016L666 1246H867L841 1016L812 852L927 862H1165L1147 682H897L785 689Q784 641 779 591L775 525L747 284H546L573 525L599 689Z" />
<glyph unicode="," glyph-name="comma" horiz-adv-x="543" d="M234 282Q332 252 377 169T423 -17Q423 -126 375 -223T243 -395T51 -512L-12 -428L-9 -407Q42 -382 86 -333T157 -219T184 -88Q184 -45 171 -7T135 57T85 87L89 142L234 282Z" />
<glyph unicode="-" glyph-name="hyphen" horiz-adv-x="1277" d="M1107 862L1089 682H241L259 862H1107Z" />
<glyph unicode="." glyph-name="period" horiz-adv-x="543" d="M315 301T350 263T385 166Q385 107 358 65T288 1T198 -21Q143 -21 108 17T72 115Q72 169 97 211T164 277T249 301Q315 301 350 263Z" />
<glyph unicode="/" glyph-name="slash" horiz-adv-x="854" d="M735 1597H942L79 -362H-126L735 1597Z" />
<glyph unicode="0" glyph-name="zero" horiz-adv-x="1278" d="M102 659T184 819T410 1071T731 1162Q889 1162 990 1100T1138 930T1185 685Q1185 491 1104 331T880 77T558 -16Q401 -16 299 48T150 220T102 461Q102 659 184 819ZM898 851T851 952T701 1053Q582 1053
512 960T413 734T385 466Q385 302 432 198T580 94Q693 94 764 183T867 406T898 679Q898 851 851 952Z" />
<glyph unicode="1" glyph-name="one" horiz-adv-x="924" d="M299 125L406 900Q277 868 160 848L143 960Q242 982 371 1042T587 1162L715 1132L574 126L791 98L781 0H84L94 98L299 125Z" />
<glyph unicode="2" glyph-name="two" horiz-adv-x="1213" d="M237 198T394 315T642 555T733 790Q733 888 685 940T542 992Q446 992 357 947T209 847L144 959Q183 1002 251 1048T418 1128T630 1162Q846 1162 936 1069T1027 836Q1027 644 824 462T327 135L880 180L986
358L1114 316L1022 0H63L37 94Q237 198 394 315Z" />
<glyph unicode="3" glyph-name="three" horiz-adv-x="1092" d="M308 -207T423 -159T600 -28T662 156Q662 253 602 309T409 365Q385 365 372 364L248 332L267 465Q375 488 467 540T614 667T669 827Q669 903 625 945T502 987Q408 987 330 955T177 865L125 976Q163
1016 237 1059T409 1132T609 1162Q705 1162 782 1131T905 1036T950 881Q950 794 899 711T763 561T584 458Q618 460 634 460Q792 460 870 384T949 181Q949 27 844 -94T567 -283T201 -351Q126 -351 -1 -327L29 -194Q101 -207 157 -207Q308 -207 423 -159Z" />
<glyph unicode="4" glyph-name="four" horiz-adv-x="1258" d="M133 264T328 604T668 1256H707L950 1140Q873 1002 684 725T346 249L229 115L679 147L727 510L987 579L939 167L1158 182L1133 0H911L864 -375H608L657 0H47L-6 88Q133 264 328 604Z" />
<glyph unicode="5" glyph-name="five" horiz-adv-x="1112" d="M310 -220T428 -163T611 -11T675 191Q675 443 418 443Q358 443 299 428T174 386L119 429L279 1146H874L896 1162H1045L989 953H471L363 545Q401 563 471 578T594 593Q715 593 801 550T933 428T978
241Q978 64 873 -70T591 -277T211 -350Q173 -350 118 -344T40 -329L59 -209Q116 -220 155 -220Q310 -220 428 -163Z" />
<glyph unicode="6" glyph-name="six" horiz-adv-x="1225" d="M112 731T226 956T539 1344T986 1571L1029 1459Q896 1414 774 1316T562 1095T435 852Q486 910 566 948T752 986Q869 986 952 936T1078 799T1121 603Q1121 440 1050 297T852 67T570 -20Q433 -20 329
46T169 227T112 486Q112 731 226 956ZM850 643T826 706T761 800T669 830Q511 830 408 683Q381 547 381 422Q381 273 428 189T588 104Q677 104 736 171T822 341T850 547Q850 643 826 706Z" />
<glyph unicode="7" glyph-name="seven" horiz-adv-x="1096" d="M355 978L264 762L87 764L156 1146H1079L1113 1099L521 -352L258 -269L893 978H355Z" />
<glyph unicode="8" glyph-name="eight" horiz-adv-x="1223" d="M379 863T323 954T266 1151Q266 1263 328 1354T503 1497T759 1550Q958 1550 1060 1472T1163 1248Q1163 1123 1073 1016T834 833Q952 749 1027 639T1103 409Q1103 280 1024 183T818 33T551 -20Q431
-20 328 17T160 135T96 342Q96 483 198 600T469 787Q379 863 323 954ZM932 1338T880 1391T748 1444Q680 1444 627 1414T543 1328T513 1201Q513 1119 567 1053T727 912Q820 960 876 1042T932 1235Q932 1338 880 1391ZM654 97T713 129T807 221T842 360Q842 430 810
485T725 587T573 705Q474 652 414 562T353 356Q353 286 379 227T457 133T584 97Q654 97 713 129Z" />
<glyph unicode="9" glyph-name="nine" horiz-adv-x="1246" d="M1134 419T1019 191T702 -202T254 -429L211 -316Q346 -271 470 -176T685 43T814 291Q763 232 681 194T494 156Q376 156 293 214T168 372T125 592Q125 737 194 868T388 1081T676 1163Q815 1163 918
1102T1078 929T1134 668Q1134 419 1019 191ZM392 533T418 458T486 348T577 313Q669 313 733 357T838 460Q865 574 865 698Q865 855 818 947T658 1039Q569 1039 509 979T421 829T392 646Q392 533 418 458Z" />
<glyph unicode=":" glyph-name="colon" horiz-adv-x="543" d="M406 1110T441 1072T476 975Q476 916 449 874T379 810T289 788Q234 788 199 826T163 924Q163 978 188 1020T255 1086T340 1110Q406 1110 441 1072ZM563 301T598 263T633 166Q633 107 606 65T536 1T446
-21Q391 -21 356 17T320 115Q320 169 345 211T412 277T497 301Q563 301 598 263Z" />
<glyph unicode=";" glyph-name="semicolon" horiz-adv-x="543" d="M482 282Q580 252 625 169T671 -17Q671 -126 623 -223T491 -395T299 -512L236 -428L239 -407Q290 -382 334 -333T405 -219T432 -88Q432 -45 419 -7T383 57T333 87L337 142L482 282ZM407 1110T442
1072T477 975Q477 916 450 874T380 810T290 788Q235 788 200 826T164 924Q164 978 189 1020T256 1086T341 1110Q407 1110 442 1072Z" />
<glyph unicode="&lt;" glyph-name="less" horiz-adv-x="1368" d="M1220 1324L1191 1092L459 749L1110 398L1085 176L195 686L211 814L1220 1324Z" />
<glyph unicode="=" glyph-name="equal" horiz-adv-x="1063" d="M985 1022L964 842H149L170 1022H985ZM914 502L893 322H78L99 502H914Z" />
<glyph unicode="&gt;" glyph-name="greater" horiz-adv-x="1368" d="M250 179L279 411L1011 754L360 1105L385 1327L1275 817L1259 689L250 179Z" />
<glyph unicode="?" glyph-name="question" horiz-adv-x="981" d="M253 809T320 879T520 1020Q617 1069 678 1110T776 1202Q791 1246 791 1313Q791 1407 748 1475T626 1580T444 1617Q392 1617 334 1607T235 1578L273 1754Q287 1767 327 1783T422 1812T531 1824Q709
1824 816 1763T966 1607T1010 1398Q1010 1248 938 1140Q895 1075 837 1029T686 927Q639 899 606 876Q540 832 505 789T467 688Q466 672 466 641Q466 564 477 522L325 473L309 474Q286 508 270 578T253 714Q253 809 320 879ZM532 301T566 263T601 166Q601 107 574
65T504 1T414 -21Q360 -21 325 17T289 115Q289 169 314 211T380 277T465 301Q532 301 566 263Z" />
<glyph unicode="@" glyph-name="at" horiz-adv-x="1969" d="M1401 1561T1559 1483T1805 1257T1893 911Q1893 641 1803 435T1570 116T1277 4Q1214 4 1191 56T1168 208Q1168 245 1177 312T1201 444Q1153 330 1090 231T955 70T812 7Q732 7 663 54T550 199T506 438Q506
599 573 753T770 1006T1082 1106Q1128 1106 1191 1090T1294 1046L1481 1088Q1452 974 1419 772T1372 417Q1366 356 1366 296Q1366 263 1368 223Q1369 196 1376 183T1391 169Q1472 169 1547 268T1669 521T1715 830Q1715 1031 1629 1161T1406 1350T1109 1409Q859
1409 669 1265T377 889T275 408Q275 171 359 17T588 -208T923 -280Q1009 -280 1117 -261T1275 -218L1313 -316Q1242 -370 1131 -401T892 -433Q655 -433 473 -349T188 -93T84 336Q84 690 242 970T657 1405T1197 1561Q1401 1561 1559 1483ZM908 201T994 323T1151
610T1236 881Q1217 915 1163 940T1063 965Q947 965 871 889T761 695T726 447Q726 347 757 274T850 201Q908 201 994 323Z" />
<glyph unicode="A" glyph-name="A" horiz-adv-x="1347" d="M956 1522L1206 129L1365 97L1358 0H749L754 97L910 126L866 425H343L210 127L385 97L378 0H-142L-134 97L-4 126L674 1522H956ZM845 563L756 1170L746 1329L404 563H845Z" />
<glyph unicode="B" glyph-name="B" horiz-adv-x="1354" d="M158 127L323 1391L183 1416L196 1522H490Q539 1522 639 1530Q753 1538 817 1538Q1070 1538 1175 1443T1280 1199Q1280 1046 1194 950T939 806Q1038 802 1114 760T1231 647T1272 492Q1272 227 1087 105T567
-17Q511 -17 417 -8Q315 0 276 0H6L15 97L158 127ZM527 855Q569 853 589 853L674 854Q769 854 844 887T964 993T1009 1175Q1009 1296 947 1356T753 1416Q725 1416 678 1413T599 1403L527 855ZM432 127Q466 118 520 112T610 106Q973 106 973 446Q973 589 905 655T679
722Q581 722 509 716L432 127Z" />
<glyph unicode="C" glyph-name="C" horiz-adv-x="1266" d="M1014 1540T1086 1529T1227 1500Q1233 1498 1253 1493L1289 1483L1225 1097H1032L1000 1384Q932 1416 854 1416Q692 1416 585 1298T430 1003T385 653Q391 409 465 268T691 126Q757 126 823 145T930 213Q944
228 967 295T1005 412H1171L1129 107Q1048 57 933 21T644 -16Q445 -16 318 75T133 316T75 645Q75 916 180 1119T473 1431T896 1540Q1014 1540 1086 1529Z" />
<glyph unicode="D" glyph-name="D" horiz-adv-x="1474" d="M157 127L323 1391L184 1416L195 1522H504Q550 1522 652 1530Q764 1538 823 1538Q1146 1538 1292 1370T1439 907Q1439 638 1344 430T1061 103T604 -16Q586 -16 555 -14T502 -9Q458 -5 397 -3T293 0H-7L4
97L157 127ZM442 134Q477 122 533 115T629 107Q804 113 918 228T1086 518T1139 884Q1139 1079 1102 1195T985 1364T775 1416Q728 1416 679 1409T605 1394L442 134Z" />
<glyph unicode="E" glyph-name="E" horiz-adv-x="1272" d="M159 127L321 1391L182 1416L193 1522H1227L1204 1178H1033L993 1387L609 1407L536 862L990 891L964 693L520 716L440 127L942 157L1060 415L1225 393L1146 0H-8L4 97L159 127Z" />
<glyph unicode="F" glyph-name="F" horiz-adv-x="1197" d="M159 127L321 1391L182 1416L195 1522H1256L1223 1171H1046L1016 1384L608 1406L536 857L1012 875L990 680L520 710L443 128L717 98L709 0H6L16 98L159 127Z" />
<glyph unicode="G" glyph-name="G" horiz-adv-x="1383" d="M1008 1540T1094 1526T1265 1489L1292 1482L1343 1471L1282 1154H1091L1076 1364Q994 1416 864 1416Q688 1416 580 1308T426 1030T379 663Q379 514 411 392T511 195T685 120Q765 120 826 130T936 168L992
590L776 607L792 740H1298L1208 88Q1140 81 1046 55Q959 31 905 18T777 -5T621 -16Q433 -16 312 77T134 322T78 652Q78 917 176 1118T454 1429T873 1540Q1008 1540 1094 1526Z" />
<glyph unicode="H" glyph-name="H" horiz-adv-x="1602" d="M1043 128L1118 708H520L445 127L612 98L604 0H9L19 97L161 127L325 1391L185 1416L198 1522H789L777 1416L609 1391L538 844H1135L1206 1391L1041 1416L1052 1522H1649L1637 1416L1490 1391L1327 128L1482
97L1471 0H853L864 98L1043 128Z" />
<glyph unicode="I" glyph-name="I" horiz-adv-x="740" d="M163 127L327 1391L186 1416L198 1522H786L775 1416L611 1391L448 127L615 98L607 0H3L14 97L163 127Z" />
<glyph unicode="J" glyph-name="J" horiz-adv-x="733" d="M193 1416L208 1522H777L766 1416L617 1392L613 1354Q543 752 505 445T445 75Q405 -45 318 -133T116 -273T-127 -345L-171 -246Q-75 -217 -4 -165T109 -47T165 86Q207 294 237 523T309 1131Q315 1187 322
1252T338 1391L193 1416Z" />
<glyph unicode="K" glyph-name="K" horiz-adv-x="1431" d="M809 396Q717 609 676 688L490 495L443 127L610 98L601 0H1L12 97L159 127L322 1391L183 1416L196 1522H786L775 1416L606 1391L517 705L1135 1391L1008 1417L1020 1522H1484L1470 1416L1354 1392L861
880Q900 815 1016 591L1092 447L1102 429Q1189 271 1226 213T1294 137L1417 100L1404 0H1042Q1003 5 963 72T864 272L809 396Z" />
<glyph unicode="L" glyph-name="L" horiz-adv-x="1229" d="M159 127L322 1391L182 1416L195 1522H803L791 1416L606 1391L443 123L850 139L1028 536L1180 513L1080 0H6L17 98L159 127Z" />
<glyph unicode="M" glyph-name="M" horiz-adv-x="1955" d="M99 127L421 1391L242 1416L256 1522H836L964 588L982 418L1042 588L1160 871L1432 1522H1956L1944 1416L1773 1391L1740 128L1909 98L1900 0H1269L1278 99L1461 127L1509 1001L1534 1401L1394 1049L940
-3L797 -18L644 1025L587 1401L507 1015L297 127L504 98L495 0H-73L-61 98L99 127Z" />
<glyph unicode="N" glyph-name="N" horiz-adv-x="1538" d="M156 126L334 1391L175 1416L191 1522H652L1066 484L1141 252L1280 1392L1118 1416L1129 1522H1609L1598 1416L1465 1391L1257 0H974L547 1058L476 1298L351 127L527 98L518 0H4L12 97L156 126Z" />
<glyph unicode="O" glyph-name="O" horiz-adv-x="1426" d="M1019 1542T1141 1455T1320 1220T1377 890Q1377 642 1291 435T1035 104T631 -20Q447 -20 325 66T145 301T87 640Q87 887 176 1093T434 1420T833 1542Q1019 1542 1141 1455ZM1072 1128T1006 1273T803 1418Q681
1418 587 1316T441 1039T389 659Q389 414 453 258T660 101Q786 101 879 200T1022 473T1072 863Q1072 1128 1006 1273Z" />
<glyph unicode="P" glyph-name="P" horiz-adv-x="1294" d="M158 127L323 1391L182 1416L195 1522H483Q540 1522 642 1530Q742 1538 792 1538Q1060 1538 1183 1435T1306 1119Q1306 933 1221 800T984 597T636 527Q535 527 495 531L447 127L689 98L681 0H6L16 97L158
127ZM829 656T920 781T1012 1134Q1012 1277 948 1346T750 1416Q681 1416 609 1401L510 665Q575 652 645 654Q829 656 920 781Z" />
<glyph unicode="Q" glyph-name="Q" horiz-adv-x="1430" d="M1018 1542T1140 1455T1319 1222T1376 892Q1376 670 1306 479T1100 158T771 -7Q772 -82 809 -120T906 -169T1058 -181Q1108 -181 1184 -170T1311 -140L1313 -304Q1266 -341 1175 -372T973 -403Q796 -403
700 -335T603 -135Q603 -85 620 -20Q439 -18 320 69T143 303T86 640Q86 887 175 1093T433 1420T832 1542Q1018 1542 1140 1455ZM1071 1128T1005 1273T802 1418Q680 1418 586 1316T440 1039T388 659Q388 414 452 258T659 101Q785 101 878 200T1021 473T1071 863Q1071
1128 1005 1273Z" />
<glyph unicode="R" glyph-name="R" horiz-adv-x="1406" d="M159 127L322 1391L183 1416L195 1522H488Q529 1522 571 1525T627 1529Q715 1538 797 1538Q986 1538 1098 1496T1259 1373T1308 1167Q1308 1000 1214 876T953 699Q1013 638 1120 384L1148 323Q1193 224
1217 183T1274 123T1368 102L1360 -1L1028 1Q1000 0 971 53T894 231Q884 256 877 277Q808 458 765 553T685 666L502 665L437 127L622 98L615 0H15L24 97L159 127ZM851 797T933 894T1015 1156Q1015 1288 951 1351T739 1415Q718 1415 674 1412T601 1403L519 795Q566
792 663 792H699Q851 797 933 894Z" />
<glyph unicode="S" glyph-name="S" horiz-adv-x="1123" d="M251 372L267 168Q308 138 361 120T475 101Q561 101 626 128T727 208T764 333Q764 399 736 452T653 552T511 655Q412 718 340 782T224 930T179 1114Q179 1244 248 1341T438 1489T708 1541Q849 1541 943
1519T1091 1463L1041 1178H887L858 1368Q788 1419 687 1419Q619 1419 564 1396T476 1329T443 1222Q443 1148 474 1089T562 981T714 872Q812 810 880 750T992 612T1035 435Q1035 305 969 201T776 37T477 -23Q380 -23 287 -8T125 29T32 71L84 372H251Z" />
<glyph unicode="T" glyph-name="T" horiz-adv-x="1349" d="M473 127L639 1408L365 1384L232 990L76 989L166 1522H1434L1357 990L1208 989L1201 1384L924 1408L757 127L1025 100L1016 0H214L225 100L473 127Z" />
<glyph unicode="U" glyph-name="U" horiz-adv-x="1427" d="M264 1392L124 1416L137 1522H737L726 1417L549 1391L447 617Q432 489 432 420Q434 268 504 183T702 98Q875 98 968 230T1095 626L1198 1391L1056 1417L1067 1522H1518L1505 1417L1378 1392L1278 627Q1248
394 1170 252T964 45T654 -20Q486 -20 374 36T208 193T152 428Q150 509 159 593L264 1392Z" />
<glyph unicode="V" glyph-name="V" horiz-adv-x="1236" d="M20 1417L32 1522H615L605 1416L448 1391L569 483L592 244L680 483L1087 1391L929 1416L939 1522H1421L1406 1416L1275 1392L625 -10L381 -15L151 1391L20 1417Z" />
<glyph unicode="W" glyph-name="W" horiz-adv-x="1878" d="M0 1417L13 1522H572L563 1416L418 1391L522 477L550 244L619 448L942 1258L928 1393L787 1417L797 1522H1374L1360 1416L1211 1391L1304 477L1315 244L1396 461L1785 1390L1600 1416L1611 1522H2129L2117
1417L1975 1392L1346 -10H1084L983 961L594 -10H334L132 1391L0 1417Z" />
<glyph unicode="X" glyph-name="X" horiz-adv-x="1342" d="M59 127L555 753L253 1390L125 1416L136 1522H733L724 1417L579 1392L760 922L1077 1391L940 1416L949 1522H1448L1438 1416L1301 1392L830 787L1161 127L1299 98L1290 0H667L675 98L823 127L622 610L289
127L440 97L431 0H-70L-59 98L59 127Z" />
<glyph unicode="Y" glyph-name="Y" horiz-adv-x="1245" d="M444 127L504 598L158 1391L39 1416L50 1522H660L645 1416L479 1391L670 877L711 739L778 862L1096 1391L943 1416L953 1522H1433L1420 1416L1304 1392L785 598L724 127L946 98L937 0H211L221 98L444 127Z" />
<glyph unicode="Z" glyph-name="Z" horiz-adv-x="1211" d="M807 1258L950 1400L449 1387L327 1127L177 1150L238 1522H1233L1260 1436L428 265L298 124L851 147L1017 440L1167 399L1070 0H-1L-32 89L807 1258Z" />
<glyph unicode="[" glyph-name="bracketleft" horiz-adv-x="865" d="M366 1642T432 1698T623 1755Q662 1755 720 1745T824 1723T883 1708L866 1601H591L368 -55L643 -57L631 -167Q544 -192 488 -203T358 -214Q255 -214 198 -182T141 -71Q141 -1 145 39Q149 111
184 364T289 1095Q339 1429 348 1503Q366 1642 432 1698Z" />
<glyph unicode="\" glyph-name="backslash" horiz-adv-x="854" d="M70 1597H274L851 -362H646L70 1597Z" />
<glyph unicode="]" glyph-name="bracketright" horiz-adv-x="865" d="M533 -86T467 -142T276 -199Q237 -199 179 -189T75 -167T16 -152L33 -45H308L531 1611L256 1613L268 1723Q355 1748 411 1759T541 1770Q644 1770 701 1738T758 1627Q758 1557 754 1517Q750
1445 715 1192T610 461Q560 127 551 53Q533 -86 467 -142Z" />
<glyph unicode="^" glyph-name="asciicircum" horiz-adv-x="1363" d="M781 1531L1178 413H965L680 1208L396 413H185L577 1531H781Z" />
<glyph unicode="_" glyph-name="underscore" horiz-adv-x="1335" d="M1267 -338H-111L-91 -187H1287L1267 -338Z" />
<glyph unicode="`" glyph-name="grave" horiz-adv-x="541" d="M203 1743L491 1311L404 1245Q362 1263 282 1323T127 1454T22 1579L203 1743Z" />
<glyph unicode="a" glyph-name="a" horiz-adv-x="1197" d="M790 1163T850 1152T960 1124L1097 1163L967 209Q966 202 966 189Q966 161 976 147T1002 133Q1035 133 1093 179L1123 115Q1109 93 1074 62T984 5T868 -20Q796 -20 755 14T717 115L709 128Q649 63 572
22T404 -20Q234 -20 152 97T70 406Q70 589 149 764T381 1051T739 1163Q790 1163 850 1152ZM809 1017Q768 1031 712 1031Q589 1031 509 938T391 705T354 423Q354 288 391 214T499 140Q553 140 607 176T709 267L809 1017Z" />
<glyph unicode="b" glyph-name="b" horiz-adv-x="1196" d="M184 1527L205 1611L513 1650L566 1623L488 1036Q543 1092 616 1127T778 1163Q947 1163 1034 1048T1121 730Q1121 541 1040 368T808 88T458 -20Q401 -20 337 -8T216 23L92 -20L284 1484L184 1527ZM368
131Q412 111 486 111Q605 111 684 202T802 433T840 723Q840 849 800 925T685 1002Q623 1002 567 964T466 869L368 131Z" />
<glyph unicode="c" glyph-name="c" horiz-adv-x="925" d="M67 619T138 784T351 1056T688 1163Q748 1163 815 1152T928 1121L856 855Q854 857 827 859Q807 861 806 862Q749 929 706 969T627 1010Q553 1010 490 945T388 758T350 478Q350 305 397 226T538 147Q618
147 675 176T798 268L851 175Q820 131 764 87T625 11T442 -20Q325 -20 241 34T112 193T67 448Q67 619 138 784Z" />
<glyph unicode="d" glyph-name="d" horiz-adv-x="1222" d="M70 591T147 765T374 1051T734 1163Q789 1163 852 1150L902 1482L760 1525L780 1608L1138 1650L1193 1623L988 211Q986 191 986 184Q986 133 1017 133Q1032 133 1052 143T1107 179L1136 116Q1102 72 1037
26T882 -20Q804 -20 767 20T730 144Q677 74 595 27T408 -20Q293 -20 217 35T106 186T70 406Q70 591 147 765ZM831 1006Q784 1031 707 1031Q585 1031 505 937T388 702T351 419Q351 286 391 213T501 140Q565 140 622 179T722 277L831 1006Z" />
<glyph unicode="e" glyph-name="e" horiz-adv-x="1067" d="M799 1164T868 1131T971 1039T1004 906Q1004 760 898 660T642 510T365 457Q362 368 382 295T448 179T564 136Q735 136 881 293L937 199Q904 150 842 99T690 11T493 -25Q350 -25 256 38T117 202T72 424Q72
625 154 794T379 1064T695 1164Q799 1164 868 1131ZM734 959T708 996T633 1034Q551 1034 494 961T407 782T367 573Q441 577 527 615T674 724T734 885Q734 959 708 996Z" />
<glyph unicode="f" glyph-name="f" horiz-adv-x="694" d="M113 996L131 1087L273 1150L285 1225Q306 1349 368 1450T526 1611T734 1670Q840 1670 903 1644L842 1470Q813 1491 781 1505T704 1518Q654 1518 624 1489T579 1409T552 1278L534 1155H752L728 996H512L399
63Q380 -94 322 -224T167 -434T-54 -513Q-103 -513 -154 -507T-233 -494L-176 -314Q-154 -324 -102 -341T-18 -358Q30 -358 61 -303T106 -143L244 996H113Z" />
<glyph unicode="g" glyph-name="g" horiz-adv-x="1189" d="M796 1163T859 1150T973 1119L1117 1163L939 -77Q917 -235 827 -332T612 -472T356 -514Q290 -514 216 -501T109 -473L160 -271Q203 -297 282 -326T435 -355Q514 -355 558 -338T626 -277T662 -145L695
95Q640 43 569 12T413 -20Q298 -20 221 35T107 187T70 406Q70 589 149 764T381 1051T739 1163Q796 1163 859 1150ZM827 1010Q779 1031 712 1031Q589 1031 509 937T391 701T354 419Q354 287 395 214T506 140Q565 140 620 174T718 260L827 1010Z" />
<glyph unicode="h" glyph-name="h" horiz-adv-x="1271" d="M814 556T828 653T842 830Q842 893 831 926T800 971T748 983Q682 983 601 912T457 735L364 0H92L277 1482L154 1525L171 1608L517 1650L570 1623L480 915Q556 1028 658 1095T876 1163Q994 1163 1059 1093T1124
861Q1124 772 1074 505L1065 450Q1048 348 1040 296T1031 197Q1030 163 1038 148T1062 133Q1079 133 1100 143T1159 183L1189 120Q1175 98 1138 65T1042 6T913 -21Q820 -21 783 16T745 126Q745 168 754 230T783 392L792 443Q814 556 828 653Z" />
<glyph unicode="i" glyph-name="i" horiz-adv-x="658" d="M122 1026L138 1111L495 1163L548 1139L415 209Q413 189 413 181Q413 133 444 133Q461 133 483 145T543 189L572 124Q555 100 519 67T425 7T299 -20Q218 -20 175 11T132 103Q132 115 133 122Q147 236 190
534L251 968L122 1026ZM290 1550T313 1590T376 1655T464 1679Q508 1679 542 1660T594 1610T613 1542Q613 1492 592 1451T529 1385T431 1360Q394 1360 362 1380T310 1433T290 1502Q290 1550 313 1590Z" />
<glyph unicode="j" glyph-name="j" horiz-adv-x="650" d="M-194 -383Q-182 -388 -157 -391T-122 -395Q-32 -395 23 -333T105 -172T148 65L250 980L89 1031L108 1112L498 1163L548 1139L414 0Q394 -167 325 -285T152 -463T-73 -524Q-129 -524 -171 -515T-231 -487L-194
-383ZM295 1550T318 1590T381 1655T469 1679Q513 1679 547 1660T599 1610T618 1542Q618 1492 597 1451T534 1385T436 1360Q399 1360 367 1380T315 1433T295 1502Q295 1550 318 1590Z" />
<glyph unicode="k" glyph-name="k" horiz-adv-x="1123" d="M152 1525L169 1608L515 1650L569 1623L353 0H81L276 1482L152 1525ZM786 919T797 956T812 1040Q816 1103 861 1133T963 1163Q1017 1163 1049 1130T1083 1048Q1083 976 1036 910Q979 834 881 764T676
641L897 248Q921 206 952 181T1007 155Q1028 155 1060 169T1121 207L1155 140Q1133 109 1087 72T979 8T850 -19Q785 -19 741 9T671 95L442 610L446 611H442L475 632Q540 674 581 704T667 777T758 882Q786 919 797 956Z" />
<glyph unicode="l" glyph-name="l" horiz-adv-x="622" d="M295 1482L167 1525L187 1608L530 1650L580 1623L388 209Q386 199 386 181Q386 133 417 133Q433 133 455 144T516 188L545 124Q529 101 494 68T403 8T282 -20Q205 -20 159 12T111 115Q111 145 118 192L295 1482Z" />
<glyph unicode="m" glyph-name="m" horiz-adv-x="1925" d="M857 684T857 824Q857 893 847 927T815 972T757 983Q696 983 616 918T475 755L372 0H105L236 962L132 1022L150 1111L465 1163L515 1139L498 929Q573 1034 672 1098T880 1163Q989 1163 1052 1106T1129
919Q1202 1031 1305 1097T1526 1163Q1641 1163 1707 1091T1773 861Q1773 811 1761 726T1726 505L1717 452Q1700 355 1692 297T1684 189Q1684 133 1714 133Q1731 133 1752 144T1813 188L1842 124Q1824 100 1789 67T1696 7T1568 -21Q1476 -21 1439 18T1402 125Q1402
174 1413 247T1446 446L1450 471Q1470 588 1481 673T1492 830Q1492 892 1482 925T1452 970T1403 982Q1340 982 1264 922T1129 766Q1121 648 1101 505L1039 0H765L822 443Q857 684 857 824Z" />
<glyph unicode="n" glyph-name="n" horiz-adv-x="1284" d="M133 1022L150 1111L466 1163L516 1139L499 932Q575 1037 676 1100T888 1163Q1006 1163 1071 1093T1136 861Q1136 810 1123 722T1086 505Q1078 457 1073 432Q1071 418 1062 364T1048 266T1043 192Q1043
133 1074 133Q1089 133 1108 143T1163 179L1192 115Q1177 93 1141 62T1049 5T925 -21Q833 -21 795 17T757 123Q757 160 765 215T782 324T795 396L804 443Q827 570 840 661T854 830Q854 893 844 926T814 971T760 983Q695 983 616 915T475 745L373 0H106L236 963L133
1022Z" />
<glyph unicode="o" glyph-name="o" horiz-adv-x="1173" d="M885 1164T995 1040T1105 682Q1105 493 1028 331T812 72T495 -25Q284 -25 175 100T65 460Q65 649 141 810T357 1068T674 1164Q885 1164 995 1040ZM810 861T768 946T638 1031Q546 1031 483 947T389 732T358
465V435Q362 265 405 183T536 101Q629 101 690 187T781 406T810 678Q810 861 768 946Z" />
<glyph unicode="p" glyph-name="p" horiz-adv-x="1195" d="M278 -520H16L217 971L109 1026L126 1111L453 1163L503 1139L491 1035Q544 1092 616 1127T777 1163Q947 1163 1034 1048T1122 730Q1122 542 1041 369T809 88T464 -20Q414 -20 349 -8L278 -520ZM369 133Q416
111 492 111Q609 111 687 202T801 433T838 723Q838 849 798 925T684 1002Q622 1002 568 965T472 869L369 133Z" />
<glyph unicode="q" glyph-name="q" horiz-adv-x="1195" d="M71 591T148 765T375 1051T735 1163Q790 1163 855 1150T970 1119L972 1120L1103 1149L911 -290Q910 -296 910 -307Q910 -331 918 -347T943 -364Q960 -364 982 -352T1041 -309L1070 -373Q1055 -396 1018
-429T922 -490T793 -518Q705 -518 666 -476T630 -363L695 103Q641 48 569 14T409 -20Q294 -20 218 35T107 186T71 406Q71 591 148 765ZM821 1011Q777 1031 708 1031Q586 1031 506 937T389 702T352 419Q352 286 391 213T502 140Q564 140 620 178T718 272L821 1011Z"
/>
<glyph unicode="r" glyph-name="r" horiz-adv-x="845" d="M130 1022L147 1111L439 1163L490 1133L473 886Q496 952 544 1016T663 1121T816 1163Q836 1163 854 1158T882 1146L824 854Q810 864 782 872T715 880Q641 880 576 849T473 750L374 0H107L234 962L130 1022Z" />
<glyph unicode="s" glyph-name="s" horiz-adv-x="873" d="M104 188T176 157T329 126Q401 126 453 156T505 261Q505 306 483 344T423 415T325 491Q125 633 125 828Q125 926 181 1002T335 1121T557 1163Q632 1163 709 1151T815 1126L774 937Q762 953 732 973T657
1010T560 1026Q487 1026 438 993T389 890Q389 830 430 780T559 665Q627 614 670 570T742 466T771 326Q771 215 711 137T549 20T328 -20Q268 -20 203 -10T88 15T19 45L62 224Q104 188 176 157Z" />
<glyph unicode="t" glyph-name="t" horiz-adv-x="729" d="M229 1004H109L132 1103L254 1150Q290 1184 329 1257T403 1416H550L517 1155H749L727 1004H498L415 390Q399 278 399 234Q399 186 416 167T477 148Q516 148 568 168T656 216L678 137Q649 102 594 66T466
5T312 -20Q229 -20 176 22T123 159Q123 195 144 351L229 1004Z" />
<glyph unicode="u" glyph-name="u" horiz-adv-x="1248" d="M229 962L116 1033L132 1122L465 1163L515 1139L446 589Q439 529 433 495Q422 416 417 369T412 284Q412 201 440 168T528 134Q588 134 647 170T752 262L872 1155H1140L1013 210Q1011 190 1011 184Q1011
134 1045 134Q1062 134 1082 145T1143 190L1172 125Q1160 104 1122 70T1028 8T907 -19Q831 -19 792 13T753 103Q753 114 757 140L753 146Q690 73 608 27T414 -20Q298 -20 219 43T138 244Q138 297 146 370T170 545L177 597L229 962Z" />
<glyph unicode="v" glyph-name="v" horiz-adv-x="1072" d="M142 944Q137 974 127 986T101 1000Q85 1000 73 996T46 981L17 1051Q29 1067 62 1093T145 1141T250 1163Q330 1163 368 1129T415 1026L496 411L519 209L598 327Q687 467 734 586T795 845Q796 869 792
894T779 953Q764 1007 764 1038Q764 1096 798 1129T894 1163Q975 1163 1014 1105T1053 951Q1053 812 946 613T675 218L497 -9L323 -21L253 355L142 944Z" />
<glyph unicode="w" glyph-name="w" horiz-adv-x="1736" d="M983 -18L932 355L899 673L888 822L843 673L715 372L550 -6L326 -20L253 355L144 944Q137 974 127 986T101 1000Q86 1000 75 996T46 981L17 1051Q29 1067 63 1094T148 1142T252 1163Q333 1163 370 1130T417
1026L485 395L504 196L848 1155H1102L1180 376L1195 202L1270 320Q1344 435 1399 575T1459 845Q1460 869 1456 891T1443 951Q1428 1007 1428 1038Q1428 1096 1462 1129T1559 1163Q1640 1163 1677 1105T1715 948Q1715 857 1655 723T1511 455T1349 218L1189 -8L983
-18Z" />
<glyph unicode="x" glyph-name="x" horiz-adv-x="1020" d="M209 0H-65L386 579L211 934Q194 968 178 986T143 1005Q120 1005 103 998T67 976L29 1047Q41 1064 77 1091T168 1141T288 1163Q360 1163 401 1137T460 1058L557 756L812 1155H1076L631 578L802 241Q819
205 840 177T880 149Q898 149 920 159T980 199L1021 129Q1009 108 970 73T868 9T730 -20Q662 -20 627 6T572 85L462 401L209 0Z" />
<glyph unicode="y" glyph-name="y" horiz-adv-x="1089" d="M141 974T132 987T106 1000Q92 1000 78 995T42 972L13 1042Q25 1060 61 1088T148 1140T255 1163Q334 1163 371 1129T419 1026Q429 968 449 824T478 614Q512 358 527 264L552 34L656 247L667 272Q723 396
755 477T808 648T830 825Q830 858 824 882T807 937Q796 968 791 989T785 1040Q785 1097 819 1130T916 1163Q993 1163 1034 1107T1075 964Q1075 867 1051 774T992 600T896 398L881 367Q795 187 690 10T507 -278Q360 -512 104 -512Q57 -512 -3 -500T-89 -475L-25
-293Q-2 -311 48 -327T154 -343Q242 -343 330 -277T499 -63H345L148 944Q141 974 132 987Z" />
<glyph unicode="z" glyph-name="z" horiz-adv-x="1017" d="M252 1164T305 1164Q359 1164 449 1159T626 1147Q821 1132 888 1132Q921 1132 943 1138T987 1161L989 1163L1044 1102L395 298L293 211H663Q738 211 786 257T844 373H927Q929 343 929 318Q929 216 910
121T849 -3Q821 -23 746 -23Q658 -23 416 -5Q214 10 147 10Q121 10 93 3T46 -19L42 -23L-23 39L622 829L742 929L385 930Q317 930 276 885T226 771H140Q137 801 137 846Q137 947 155 1034T213 1142Q252 1164 305 1164Z" />
<glyph unicode="{" glyph-name="braceleft" horiz-adv-x="1033" d="M340 595T327 612T288 646Q256 667 212 685T123 714L141 838Q268 869 333 903Q393 934 398 966L479 1500Q494 1597 529 1652T620 1729T759 1752Q799 1752 856 1742T960 1720T1019 1705Q1016 1691
1010 1652T1002 1601H726L630 970Q624 932 600 903T532 846Q514 835 460 810T387 776Q495 719 529 684Q571 640 571 591Q571 581 570 575L475 -55H750Q746 -78 742 -113T736 -163Q650 -188 593 -199T461 -210Q359 -210 303 -178T248 -67Q249 -49 287 216T340 579Q340
595 327 612Z" />
<glyph unicode="|" glyph-name="bar" horiz-adv-x="854" d="M544 1780V-186H349V1780H544Z" />
<glyph unicode="}" glyph-name="braceright" horiz-adv-x="1033" d="M712 951T725 934T764 900Q796 879 840 861T929 832L911 708Q784 677 719 643Q659 612 654 580L573 46Q558 -51 523 -106T432 -183T293 -206Q253 -206 196 -196T92 -174T33 -159Q36 -145 42
-106T50 -55H326L422 576Q428 614 452 643T520 700Q538 711 592 736T665 770Q557 827 523 862Q481 906 481 955Q481 965 482 971L577 1601H302Q306 1624 310 1659T316 1709Q402 1734 459 1745T591 1756Q693 1756 749 1724T804 1613Q803 1595 765 1330T712 967Q712
951 725 934Z" />
<glyph unicode="~" glyph-name="asciitilde" horiz-adv-x="1137" d="M144 914T190 962T301 1042T439 1074Q482 1074 518 1061T582 1031T649 983Q694 947 725 930T793 913Q857 913 904 941T989 1024L1078 926Q1063 872 1016 821T902 737T761 704Q716 704 679 717T613
749T546 799Q502 835 471 853T402 871Q343 871 292 844T206 765L127 864Q144 914 190 962Z" />
<glyph unicode="&#xa1;" glyph-name="exclamdown" horiz-adv-x="703" d="M367 1043T332 1081T297 1178Q297 1237 324 1279T394 1343T484 1365Q537 1365 573 1328T609 1230Q609 1176 584 1134T518 1067T433 1043Q367 1043 332 1081ZM62 -434L313 834H488L357 -434H62Z" />
<glyph unicode="&#xa2;" glyph-name="cent" horiz-adv-x="1056" d="M270 23T198 140T125 449Q125 599 181 747T349 1005T616 1149L665 1358H815L768 1162Q825 1160 884 1150T986 1121L914 855Q912 857 885 859Q865 861 864 862Q807 929 764 969T685 1010Q611 1010
548 945T446 758T408 478Q408 305 455 226T596 147Q676 147 733 176T856 268L909 175Q881 136 832 95T710 23T551 -17L515 -215H365L403 -9Q270 23 198 140Z" />
<glyph unicode="&#xa3;" glyph-name="sterling" horiz-adv-x="1383" d="M357 892L375 1000Q400 1147 482 1273T690 1474T960 1549Q1070 1549 1136 1531T1252 1469L1139 1268Q1131 1285 1101 1316T1019 1372T904 1398Q712 1398 655 1052Q653 1033 627 892H925L908
733H599Q583 645 581 626Q564 530 535 455T477 332T407 227Q389 203 382 192Q429 182 470 171Q566 148 626 137T748 126Q873 126 942 149T1040 220T1068 342Q1068 390 1041 432T978 502L1155 659Q1229 607 1277 534T1325 365Q1325 258 1274 172T1109 33T813 -20Q706
-20 616 -1T395 57Q378 62 340 73T273 92Q235 51 168 16T36 -20Q-8 -20 -34 1T-57 70Q-54 105 -18 141T76 200T197 223Q221 248 243 309T281 454L330 733H147L165 892H357Z" />
<glyph unicode="&#xa4;" glyph-name="currency" horiz-adv-x="1540" d="M417 444Q342 553 342 690Q342 823 415 932L213 1135L342 1265L546 1060Q654 1128 782 1128Q849 1128 911 1109T1028 1053L1228 1252L1357 1122L1156 921Q1222 816 1222 690Q1222 560 1151
451L1355 248L1225 119L1021 322Q911 252 782 252Q657 252 549 317L346 114L216 243L417 444ZM848 435T904 469T993 562T1026 690Q1026 759 993 817T904 910T782 945Q716 945 660 911T571 818T538 690Q538 621 571 563T660 470T782 435Q848 435 904 469Z" />
<glyph unicode="&#xa5;" glyph-name="yen" horiz-adv-x="1483" d="M589 856L294 1398L178 1421L191 1528H793L779 1421L601 1399L779 1014L828 886L909 1017L1167 1403L1038 1421L1051 1528H1568L1555 1421L1422 1393L1005 856H1284L1268 714H901L877 516H1244L1228
376H859L829 128L1090 98L1080 0H323L333 98L585 128L615 376H235L250 516H632L656 714H273L290 856H589Z" />
<glyph unicode="&#xa6;" glyph-name="brokenbar" horiz-adv-x="854" d="M544 1780V903H349V1780H544ZM544 691V-186H349V691H544Z" />
<glyph unicode="&#xa7;" glyph-name="section" horiz-adv-x="1194" d="M263 234L292 26Q359 -55 523 -55Q583 -54 642 -35T742 30T788 147Q791 196 758 234T672 301T525 371Q400 426 323 471T191 589T135 762Q135 854 178 935T293 1084Q217 1170 217 1276Q217
1402 299 1492T507 1627T755 1673Q882 1673 991 1650T1145 1598L1097 1281H950L910 1489Q885 1515 838 1530T730 1546Q629 1546 549 1509T462 1368Q459 1309 495 1265T587 1191T741 1117Q859 1066 932 1024T1056 913T1108 748Q1108 553 957 402Q1030 318 1030 210Q1030
88 951 -2T748 -139T493 -186Q413 -186 324 -173T163 -141T63 -106L112 234H263ZM344 930T344 858Q344 801 383 757T481 680T642 599Q726 560 769 538T856 488Q900 554 900 625Q900 684 860 730T761 811T599 892Q529 925 483 948T395 999Q344 930 344 858Z" />
<glyph unicode="&#xa8;" glyph-name="dieresis" horiz-adv-x="809" d="M36 1550T56 1590T114 1655T199 1679Q239 1679 270 1660T319 1610T336 1544Q336 1494 316 1452T258 1385T167 1360Q132 1360 102 1380T54 1433T36 1502Q36 1550 56 1590ZM474 1550T494 1590T552
1655T637 1679Q678 1679 709 1660T757 1610T774 1542Q774 1492 754 1451T696 1385T605 1360Q570 1360 540 1380T492 1433T474 1502Q474 1550 494 1590Z" />
<glyph unicode="&#xa9;" glyph-name="copyright" horiz-adv-x="1768" d="M1141 1570T1317 1468T1596 1190T1700 806Q1700 597 1597 422T1317 144T933 41Q725 41 549 143T270 421T167 806Q167 1014 270 1189T549 1467T933 1570Q1141 1570 1317 1468ZM1108 158T1254
245T1485 481T1570 806Q1570 982 1485 1130T1254 1366T933 1454Q758 1454 612 1367T382 1131T297 806Q297 630 381 481T612 245T933 158Q1108 158 1254 245ZM1037 1247T1105 1236T1203 1209V987H1112L1064 1107Q1043 1126 1011 1136T939 1146Q878 1146 829 1111T752
1009T724 854Q724 725 758 644T845 527T958 491Q1024 491 1081 507T1178 546L1213 458Q1167 420 1086 393T920 366Q803 366 718 425T587 584T542 806Q542 927 594 1027T743 1187T969 1247Q1037 1247 1105 1236Z" />
<glyph unicode="&#xaa;" glyph-name="ordfeminine" horiz-adv-x="854" d="M62 1168T133 1292T328 1497T598 1577Q640 1577 687 1569T770 1549L897 1586L778 907Q777 899 777 886Q777 870 780 862T790 853Q810 853 846 873L875 826Q868 817 833 797T752 760T668
743Q617 743 587 771T556 846Q556 853 558 869Q512 813 453 778T305 743Q190 743 126 822T62 1040Q62 1168 133 1292ZM645 1444Q611 1475 573 1475Q482 1475 421 1413T331 1255T302 1055Q302 962 328 917T413 872Q448 872 486 892T558 943L645 1444Z" />
<glyph unicode="&#xab;" glyph-name="guillemotleft" horiz-adv-x="1873" d="M1208 1092L1257 943L775 609L1166 281L1080 146L471 530L493 690L1208 1092ZM1627 1092L1676 943L1194 609L1585 281L1499 146L890 530L912 690L1627 1092Z" />
<glyph unicode="&#xac;" glyph-name="logicalnot" horiz-adv-x="1370" d="M1199 864L1137 322H938L983 710H211L228 864H1199Z" />
<glyph unicode="&#xad;" glyph-name="uni00AD" horiz-adv-x="1187" d="M1017 862L999 682H241L259 862H1017Z" />
<glyph unicode="&#xae;" glyph-name="registered" horiz-adv-x="1768" d="M1141 1570T1317 1468T1596 1190T1700 806Q1700 597 1597 422T1317 144T933 41Q725 41 549 143T270 421T167 806Q167 1014 270 1189T549 1467T933 1570Q1141 1570 1317 1468ZM1108 158T1254
245T1485 481T1570 806Q1570 982 1485 1130T1254 1366T933 1454Q758 1454 612 1367T382 1131T297 806Q297 630 381 481T612 245T933 158Q1108 158 1254 245ZM649 469V1134L566 1156V1240H716L752 1239Q767 1239 815 1241Q920 1245 954 1245Q1109 1245 1193 1183T1281
1014Q1281 951 1265 903T1200 815T1057 750Q1107 721 1138 680T1203 575Q1227 530 1243 505T1282 465Q1306 453 1338 453V375H1150Q1126 375 1109 400T1063 489Q1027 571 990 630T894 733H817V469L914 449V375H566V449L649 469ZM1016 835T1056 880T1096 993Q1096
1067 1051 1102T927 1138Q919 1138 898 1138T859 1136T817 1128V843Q857 835 948 835Q1016 835 1056 880Z" />
<glyph unicode="&#xaf;" glyph-name="overscore" horiz-adv-x="614" d="M587 1596L567 1414H24L43 1596H587Z" />
<glyph unicode="&#xb0;" glyph-name="degree" horiz-adv-x="931" d="M192 1367T237 1445T363 1567T543 1612Q636 1612 712 1568T832 1449T876 1284Q876 1187 830 1110T703 988T522 943Q429 943 354 987T235 1106T192 1272Q192 1367 237 1445ZM716 1334T693 1377T628
1445T537 1471Q484 1471 442 1445T376 1374T352 1274Q352 1222 375 1179T439 1110T530 1084Q583 1084 625 1110T692 1181T716 1282Q716 1334 693 1377Z" />
<glyph unicode="&#xb1;" glyph-name="plusminus" horiz-adv-x="1348" d="M598 689L457 682H248L266 862H486L625 851Q637 998 638 1016L665 1246H865L839 1016L810 852L925 862H1163L1145 682H896L784 689Q783 641 778 591L774 525L746 284H545L572 525L598 689ZM1055
180L1038 13H180L197 180H1055Z" />
<glyph unicode="&#xb4;" glyph-name="acute" horiz-adv-x="559" d="M367 1743L537 1578Q519 1544 443 1470T279 1329T135 1240L50 1312L367 1743Z" />
<glyph unicode="&#xb5;" glyph-name="uni00B5" horiz-adv-x="1364" d="M76 -372L184 358Q195 444 216 567Q234 680 246 762T265 932Q266 966 257 982T232 998Q204 998 160 968L130 1035Q156 1063 184 1086T267 1133T393 1157Q552 1157 545 1028Q539 923 505 708L501
681Q498 656 490 618Q474 520 467 462T460 336Q460 147 588 147Q653 147 702 184T806 284L922 1148H1190L1064 210Q1062 192 1062 185Q1062 134 1096 134Q1122 134 1177 172L1207 108Q1193 86 1157 56T1069 4T959 -19Q897 -19 862 5T826 92Q826 109 827 118Q782
75 751 50T664 2T536 -20Q486 -20 438 -5T366 36L306 -372H76Z" />
<glyph unicode="&#xb6;" glyph-name="paragraph" horiz-adv-x="1364" d="M384 117L460 707Q357 708 276 756T148 889T102 1084Q102 1313 250 1435T713 1557Q808 1557 923 1548Q935 1547 994 1543T1125 1538H1397L1386 1435L1230 1402Q1212 1249 1146 733Q1090
300 1068 116L1214 86L1205 0H810L983 1400H783L605 0H189L197 87L384 117Z" />
<glyph unicode="&#xb7;" glyph-name="middot" horiz-adv-x="703" d="M429 849T464 811T499 714Q499 655 472 613T402 549T312 527Q257 527 222 565T186 663Q186 717 211 759T278 825T363 849Q429 849 464 811Z" />
<glyph unicode="&#xb8;" glyph-name="cedilla" horiz-adv-x="479" d="M396 30Q414 5 427 -58T440 -182Q440 -324 366 -399T149 -475Q106 -475 52 -467T-18 -447L8 -295Q21 -302 44 -306T92 -310Q178 -310 226 -255T275 -90Q275 -28 263 30L326 34L396 30Z" />
<glyph unicode="&#xba;" glyph-name="ordmasculine" horiz-adv-x="854" d="M73 1238T142 1353T320 1528T545 1589Q654 1589 732 1544T851 1419T892 1234Q892 1079 826 966T651 793T419 733Q318 733 240 776T117 899T73 1085Q73 1238 142 1353ZM656 1337T622 1411T526
1485Q447 1485 398 1426T327 1281T306 1103Q306 1024 322 966T366 876T429 844Q553 844 604 952T656 1216Q656 1337 622 1411Z" />
<glyph unicode="&#xbb;" glyph-name="guillemotright" horiz-adv-x="1873" d="M161 146L112 295L594 629L203 957L289 1092L898 708L876 548L161 146ZM837 146L788 295L1270 629L879 957L965 1092L1574 708L1552 548L837 146Z" />
<glyph unicode="&#xbc;" glyph-name="onequarter" horiz-adv-x="2546" d="M445 668L520 1286Q473 1266 401 1252T262 1231L248 1349Q301 1360 381 1389T540 1458T667 1536H670L779 1515L676 668L909 644L894 529H195L211 644L445 668ZM1949 1074H2010L2142 977L1676
394L1600 309L1951 331L1983 566L2176 585L2143 343L2307 354L2288 181H2122L2096 -15H1905L1931 181H1435L1389 295L1949 1074ZM1633 1530L952 0H771L1452 1530H1633Z" />
<glyph unicode="&#xbd;" glyph-name="onehalf" horiz-adv-x="2546" d="M445 668L520 1286Q473 1266 401 1252T262 1231L248 1349Q301 1360 381 1389T540 1458T667 1536H670L779 1515L676 668L909 644L894 529H195L211 644L445 668ZM1653 1530L972 0H791L1472 1530H1653ZM1559
164T1690 261T1927 479T2033 707Q2033 779 1994 818T1879 857Q1804 857 1731 825T1617 752L1546 836Q1575 872 1638 912T1784 979T1947 1007Q2111 1007 2193 942T2276 765Q2276 661 2187 544T1960 322T1678 140L2131 186L2198 303L2302 280L2238 0H1495L1457 105Q1559
164 1690 261Z" />
<glyph unicode="&#xbe;" glyph-name="threequarters" horiz-adv-x="2546" d="M238 674T309 662T439 650Q576 650 646 699T722 837Q724 877 704 911T646 966T558 987Q546 987 540 986L422 946L399 1066Q472 1087 531 1116Q595 1148 637 1191T683 1288Q686 1342
657 1369T548 1396Q430 1396 310 1305L256 1407Q321 1463 422 1500T638 1538Q727 1538 793 1513T892 1442T923 1338Q919 1255 863 1187T660 1066Q688 1068 700 1068Q782 1068 843 1038T935 956T964 840Q959 749 897 675T722 557T456 514Q387 514 312 528T173 571L187
692Q238 674 309 662ZM1949 1074H2010L2142 977L1676 394L1600 309L1951 331L1983 566L2176 585L2143 343L2307 354L2288 181H2122L2096 -15H1905L1931 181H1435L1389 295L1949 1074ZM1658 1530L977 0H796L1477 1530H1658Z" />
<glyph unicode="&#xbf;" glyph-name="questiondown" horiz-adv-x="1020" d="M537 1114T503 1152T468 1249Q468 1308 495 1350T565 1414T655 1436Q709 1436 744 1398T780 1300Q780 1246 755 1204T689 1138T604 1114Q537 1114 503 1152ZM816 606T749 536T549 395Q452
346 391 305T293 213Q278 169 278 102Q278 8 321 -60T443 -165T625 -202Q677 -202 735 -192T834 -163L796 -339Q782 -352 742 -368T647 -397T538 -409Q360 -409 253 -348T103 -192T59 17Q59 167 131 275Q174 340 232 386T383 488Q430 516 463 539Q529 583 564 626T602
727Q603 743 603 774Q603 851 592 893L744 942L760 941Q783 907 799 837T816 701Q816 606 749 536Z" />
<glyph unicode="&#xc0;" glyph-name="Agrave" horiz-adv-x="1347" d="M956 1522L1206 129L1365 97L1358 0H749L754 97L910 126L866 425H343L210 127L385 97L378 0H-142L-134 97L-4 126L674 1522H956ZM845 563L756 1170L746 1329L404 563H845ZM650 2008L920 1666L826
1589Q775 1608 704 1651T573 1748T487 1852L650 2008Z" />
<glyph unicode="&#xc1;" glyph-name="Aacute" horiz-adv-x="1347" d="M956 1522L1206 129L1365 97L1358 0H749L754 97L910 126L866 425H343L210 127L385 97L378 0H-142L-134 97L-4 126L674 1522H956ZM845 563L756 1170L746 1329L404 563H845ZM1010 2008L1170 1852Q1146
1803 1084 1749T950 1652T827 1589L734 1666L1010 2008Z" />
<glyph unicode="&#xc2;" glyph-name="Acircumflex" horiz-adv-x="1347" d="M956 1522L1206 129L1365 97L1358 0H749L754 97L910 126L866 425H343L210 127L385 97L378 0H-142L-134 97L-4 126L674 1522H956ZM845 563L756 1170L746 1329L404 563H845ZM816 2008H993L1204
1668L1105 1610L886 1826L563 1611L476 1668L816 2008Z" />
<glyph unicode="&#xc3;" glyph-name="Atilde" horiz-adv-x="1347" d="M956 1522L1206 129L1365 97L1358 0H749L754 97L910 126L866 425H343L210 127L385 97L378 0H-142L-134 97L-4 126L674 1522H956ZM845 563L756 1170L746 1329L404 563H845ZM495 1845T529 1883T613
1946T721 1970Q774 1970 811 1949T891 1887Q928 1854 952 1839T1007 1824Q1057 1824 1090 1850T1157 1919L1231 1810Q1214 1767 1180 1727T1097 1660T992 1634Q951 1634 920 1645T867 1673T815 1716Q780 1748 754 1764T691 1780Q649 1780 615 1758T546 1696L478
1801Q495 1845 529 1883Z" />
<glyph unicode="&#xc4;" glyph-name="Adieresis" horiz-adv-x="1347" d="M956 1522L1206 129L1365 97L1358 0H749L754 97L910 126L866 425H343L210 127L385 97L378 0H-142L-134 97L-4 126L674 1522H956ZM845 563L756 1170L746 1329L404 563H845ZM487 1868T508
1906T565 1965T644 1987Q705 1987 741 1952T777 1862Q777 1786 733 1738T613 1690Q560 1690 524 1728T487 1821Q487 1868 508 1906ZM924 1870T945 1907T1003 1966T1082 1987Q1144 1987 1179 1951T1215 1861Q1215 1786 1171 1738T1050 1690Q997 1690 961 1728T924
1823Q924 1870 945 1907Z" />
<glyph unicode="&#xc5;" glyph-name="Aring" horiz-adv-x="1347" d="M590 1538T547 1592T503 1725Q503 1821 561 1884T705 1978T879 2008Q966 2008 1033 1982T1138 1905T1175 1787Q1175 1683 1115 1615T957 1516L1206 129L1365 97L1358 0H749L754 97L910 126L866
425H343L210 127L385 97L378 0H-142L-134 97L-4 126L670 1513Q590 1538 547 1592ZM1005 1803T985 1832T931 1877T858 1893Q812 1893 770 1877T701 1827T674 1742Q674 1704 694 1674T749 1626T824 1609Q901 1609 953 1645T1005 1767Q1005 1803 985 1832ZM845 563L756
1170L746 1329L404 563H845Z" />
<glyph unicode="&#xc6;" glyph-name="AE" horiz-adv-x="1923" d="M825 127L864 442H390L227 127L416 97L409 0H-187L-176 97L-20 127L695 1387L403 1411L418 1522H1872L1849 1188H1678L1638 1387L1272 1407L1199 858L1629 891L1604 691L1184 716L1108 127L1593
157L1701 405L1865 384L1798 0H671L683 97L825 127ZM461 580H881L983 1397L885 1399L461 580Z" />
<glyph unicode="&#xc7;" glyph-name="Ccedilla" horiz-adv-x="1266" d="M692 1416T585 1298T430 1003T385 653Q391 409 465 268T691 126Q757 126 823 145T930 213Q944 228 967 295T1005 412H1171L1129 107Q975 11 766 -10Q777 -45 784 -91T791 -180Q791 -322 717
-397T500 -473Q457 -473 403 -465T333 -445L359 -293Q372 -300 395 -304T443 -308Q529 -308 577 -253T626 -87Q626 -58 622 -16Q431 -10 309 82T131 322T75 645Q75 916 180 1119T473 1431T896 1540Q1014 1540 1086 1529T1227 1500Q1233 1498 1253 1493L1289 1483L1225
1097H1032L1000 1384Q932 1416 854 1416Q692 1416 585 1298Z" />
<glyph unicode="&#xc8;" glyph-name="Egrave" horiz-adv-x="1272" d="M623 2008L893 1666L799 1589Q748 1608 677 1651T546 1748T460 1852L623 2008ZM159 127L321 1391L182 1416L193 1522H1227L1204 1178H1033L993 1387L609 1407L536 862L990 891L964 693L520
716L440 127L942 157L1060 415L1225 393L1146 0H-8L4 97L159 127Z" />
<glyph unicode="&#xc9;" glyph-name="Eacute" horiz-adv-x="1272" d="M983 2008L1143 1852Q1119 1803 1057 1749T923 1652T800 1589L707 1666L983 2008ZM159 127L321 1391L182 1416L193 1522H1227L1204 1178H1033L993 1387L609 1407L536 862L990 891L964 693L520
716L440 127L942 157L1060 415L1225 393L1146 0H-8L4 97L159 127Z" />
<glyph unicode="&#xca;" glyph-name="Ecircumflex" horiz-adv-x="1272" d="M159 127L321 1391L182 1416L193 1522H1227L1204 1178H1033L993 1387L609 1407L536 862L990 891L964 693L520 716L440 127L942 157L1060 415L1225 393L1146 0H-8L4 97L159 127ZM790 2008H967L1178
1668L1079 1610L860 1826L537 1611L450 1668L790 2008Z" />
<glyph unicode="&#xcb;" glyph-name="Edieresis" horiz-adv-x="1272" d="M460 1868T481 1906T538 1965T617 1987Q678 1987 714 1952T750 1862Q750 1786 706 1738T586 1690Q533 1690 497 1728T460 1821Q460 1868 481 1906ZM897 1870T918 1907T976 1966T1055 1987Q1117
1987 1152 1951T1188 1861Q1188 1786 1144 1738T1023 1690Q970 1690 934 1728T897 1823Q897 1870 918 1907ZM159 127L321 1391L182 1416L193 1522H1227L1204 1178H1033L993 1387L609 1407L536 862L990 891L964 693L520 716L440 127L942 157L1060 415L1225 393L1146
0H-8L4 97L159 127Z" />
<glyph unicode="&#xcc;" glyph-name="Igrave" horiz-adv-x="740" d="M163 127L327 1391L186 1416L198 1522H786L775 1416L611 1391L448 127L615 98L607 0H3L14 97L163 127ZM349 2008L619 1666L525 1589Q474 1608 403 1651T272 1748T186 1852L349 2008Z" />
<glyph unicode="&#xcd;" glyph-name="Iacute" horiz-adv-x="740" d="M163 127L327 1391L186 1416L198 1522H786L775 1416L611 1391L448 127L615 98L607 0H3L14 97L163 127ZM709 2008L869 1852Q845 1803 783 1749T649 1652T526 1589L433 1666L709 2008Z" />
<glyph unicode="&#xce;" glyph-name="Icircumflex" horiz-adv-x="740" d="M163 127L327 1391L186 1416L198 1522H786L775 1416L611 1391L448 127L615 98L607 0H3L14 97L163 127ZM515 2008H692L903 1668L804 1610L585 1826L262 1611L175 1668L515 2008Z" />
<glyph unicode="&#xcf;" glyph-name="Idieresis" horiz-adv-x="740" d="M163 127L327 1391L186 1416L198 1522H786L775 1416L611 1391L448 127L615 98L607 0H3L14 97L163 127ZM186 1868T207 1906T264 1965T343 1987Q404 1987 440 1952T476 1862Q476 1786 432 1738T312
1690Q259 1690 223 1728T186 1821Q186 1868 207 1906ZM623 1870T644 1907T702 1966T781 1987Q843 1987 878 1951T914 1861Q914 1786 870 1738T749 1690Q696 1690 660 1728T623 1823Q623 1870 644 1907Z" />
<glyph unicode="&#xd0;" glyph-name="Eth" horiz-adv-x="1471" d="M249 863L319 1393L180 1418L191 1524H500Q546 1524 648 1532Q760 1540 819 1540Q1142 1540 1288 1372T1435 909Q1435 640 1340 432T1057 105T600 -14Q582 -14 551 -12T498 -7Q454 -3 393 -1T289
2H-11L0 99L153 129L229 711H86L108 863H249ZM438 136Q473 124 529 117T625 109Q800 115 914 230T1082 520T1135 886Q1135 1081 1098 1197T981 1366T771 1418Q724 1418 675 1411T601 1396L532 863H869L848 711H512L438 136Z" />
<glyph unicode="&#xd1;" glyph-name="Ntilde" horiz-adv-x="1538" d="M574 1845T608 1883T692 1946T800 1970Q853 1970 890 1949T970 1887Q1007 1854 1031 1839T1086 1824Q1136 1824 1169 1850T1236 1919L1310 1810Q1293 1767 1259 1727T1176 1660T1071 1634Q1030
1634 999 1645T946 1673T894 1716Q859 1748 833 1764T770 1780Q728 1780 694 1758T625 1696L557 1801Q574 1845 608 1883ZM156 126L334 1391L175 1416L191 1522H652L1066 484L1141 252L1280 1392L1118 1416L1129 1522H1609L1598 1416L1465 1391L1257 0H974L547
1058L476 1298L351 127L527 98L518 0H4L12 97L156 126Z" />
<glyph unicode="&#xd2;" glyph-name="Ograve" horiz-adv-x="1426" d="M669 2008L939 1666L845 1589Q794 1608 723 1651T592 1748T506 1852L669 2008ZM1021 1542T1143 1455T1322 1220T1379 890Q1379 642 1293 435T1037 104T633 -20Q449 -20 327 66T147 301T89 640Q89
887 178 1093T436 1420T835 1542Q1021 1542 1143 1455ZM1074 1128T1008 1273T805 1418Q683 1418 589 1316T443 1039T391 659Q391 414 455 258T662 101Q788 101 881 200T1024 473T1074 863Q1074 1128 1008 1273Z" />
<glyph unicode="&#xd3;" glyph-name="Oacute" horiz-adv-x="1426" d="M1029 2008L1189 1852Q1165 1803 1103 1749T969 1652T846 1589L753 1666L1029 2008ZM1021 1542T1143 1455T1322 1220T1379 890Q1379 642 1293 435T1037 104T633 -20Q449 -20 327 66T147 301T89
640Q89 887 178 1093T436 1420T835 1542Q1021 1542 1143 1455ZM1074 1128T1008 1273T805 1418Q683 1418 589 1316T443 1039T391 659Q391 414 455 258T662 101Q788 101 881 200T1024 473T1074 863Q1074 1128 1008 1273Z" />
<glyph unicode="&#xd4;" glyph-name="Ocircumflex" horiz-adv-x="1426" d="M1019 1542T1141 1455T1320 1220T1377 890Q1377 642 1291 435T1035 104T631 -20Q447 -20 325 66T145 301T87 640Q87 887 176 1093T434 1420T833 1542Q1019 1542 1141 1455ZM1072 1128T1006
1273T803 1418Q681 1418 587 1316T441 1039T389 659Q389 414 453 258T660 101Q786 101 879 200T1022 473T1072 863Q1072 1128 1006 1273ZM834 2008H1011L1222 1668L1123 1610L904 1826L581 1611L494 1668L834 2008Z" />
<glyph unicode="&#xd5;" glyph-name="Otilde" horiz-adv-x="1426" d="M514 1845T548 1883T632 1946T740 1970Q793 1970 830 1949T910 1887Q947 1854 971 1839T1026 1824Q1076 1824 1109 1850T1176 1919L1250 1810Q1233 1767 1199 1727T1116 1660T1011 1634Q970
1634 939 1645T886 1673T834 1716Q799 1748 773 1764T710 1780Q668 1780 634 1758T565 1696L497 1801Q514 1845 548 1883ZM1021 1542T1143 1455T1322 1220T1379 890Q1379 642 1293 435T1037 104T633 -20Q449 -20 327 66T147 301T89 640Q89 887 178 1093T436 1420T835
1542Q1021 1542 1143 1455ZM1074 1128T1008 1273T805 1418Q683 1418 589 1316T443 1039T391 659Q391 414 455 258T662 101Q788 101 881 200T1024 473T1074 863Q1074 1128 1008 1273Z" />
<glyph unicode="&#xd6;" glyph-name="Odieresis" horiz-adv-x="1426" d="M506 1868T527 1906T584 1965T663 1987Q724 1987 760 1952T796 1862Q796 1786 752 1738T632 1690Q579 1690 543 1728T506 1821Q506 1868 527 1906ZM943 1870T964 1907T1022 1966T1101 1987Q1163
1987 1198 1951T1234 1861Q1234 1786 1190 1738T1069 1690Q1016 1690 980 1728T943 1823Q943 1870 964 1907ZM1021 1542T1143 1455T1322 1220T1379 890Q1379 642 1293 435T1037 104T633 -20Q449 -20 327 66T147 301T89 640Q89 887 178 1093T436 1420T835 1542Q1021
1542 1143 1455ZM1074 1128T1008 1273T805 1418Q683 1418 589 1316T443 1039T391 659Q391 414 455 258T662 101Q788 101 881 200T1024 473T1074 863Q1074 1128 1008 1273Z" />
<glyph unicode="&#xd7;" glyph-name="multiply" horiz-adv-x="1370" d="M598 766L297 1093L446 1232L727 882L857 1005Q1104 1238 1096 1231L1213 1091L830 764L1131 437L982 298L701 648L571 525Q324 292 332 299L215 439L598 766Z" />
<glyph unicode="&#xd8;" glyph-name="Oslash" horiz-adv-x="1429" d="M984 1544T1094 1485L1228 1693L1318 1642L1179 1428Q1280 1341 1329 1201T1379 892Q1379 644 1293 437T1037 106T633 -18Q467 -18 348 54L212 -156L121 -104L266 119Q177 207 133 341T89 642Q89
889 178 1095T436 1422T835 1544Q984 1544 1094 1485ZM987 1313Q920 1420 805 1420Q683 1420 589 1318T443 1041T391 661Q391 467 429 335L987 1313ZM1074 1083T1030 1218L469 232Q538 103 662 103Q788 103 881 202T1024 475T1074 865Q1074 1083 1030 1218Z" />
<glyph unicode="&#xd9;" glyph-name="Ugrave" horiz-adv-x="1427" d="M714 2008L984 1666L890 1589Q839 1608 768 1651T637 1748T551 1852L714 2008ZM264 1392L124 1416L137 1522H737L726 1417L549 1391L447 617Q432 489 432 420Q434 268 504 183T702 98Q875 98
968 230T1095 626L1198 1391L1056 1417L1067 1522H1518L1505 1417L1378 1392L1278 627Q1248 394 1170 252T964 45T654 -20Q486 -20 374 36T208 193T152 428Q150 509 159 593L264 1392Z" />
<glyph unicode="&#xda;" glyph-name="Uacute" horiz-adv-x="1427" d="M1074 2008L1234 1852Q1210 1803 1148 1749T1014 1652T891 1589L798 1666L1074 2008ZM264 1392L124 1416L137 1522H737L726 1417L549 1391L447 617Q432 489 432 420Q434 268 504 183T702 98Q875
98 968 230T1095 626L1198 1391L1056 1417L1067 1522H1518L1505 1417L1378 1392L1278 627Q1248 394 1170 252T964 45T654 -20Q486 -20 374 36T208 193T152 428Q150 509 159 593L264 1392Z" />
<glyph unicode="&#xdb;" glyph-name="Ucircumflex" horiz-adv-x="1427" d="M264 1392L124 1416L137 1522H737L726 1417L549 1391L447 617Q432 489 432 420Q434 268 504 183T702 98Q875 98 968 230T1095 626L1198 1391L1056 1417L1067 1522H1518L1505 1417L1378
1392L1278 627Q1248 394 1170 252T964 45T654 -20Q486 -20 374 36T208 193T152 428Q150 509 159 593L264 1392ZM881 2008H1058L1269 1668L1170 1610L951 1826L628 1611L541 1668L881 2008Z" />
<glyph unicode="&#xdc;" glyph-name="Udieresis" horiz-adv-x="1427" d="M551 1868T572 1906T629 1965T708 1987Q769 1987 805 1952T841 1862Q841 1786 797 1738T677 1690Q624 1690 588 1728T551 1821Q551 1868 572 1906ZM988 1870T1009 1907T1067 1966T1146 1987Q1208
1987 1243 1951T1279 1861Q1279 1786 1235 1738T1114 1690Q1061 1690 1025 1728T988 1823Q988 1870 1009 1907ZM264 1392L124 1416L137 1522H737L726 1417L549 1391L447 617Q432 489 432 420Q434 268 504 183T702 98Q875 98 968 230T1095 626L1198 1391L1056 1417L1067
1522H1518L1505 1417L1378 1392L1278 627Q1248 394 1170 252T964 45T654 -20Q486 -20 374 36T208 193T152 428Q150 509 159 593L264 1392Z" />
<glyph unicode="&#xdd;" glyph-name="Yacute" horiz-adv-x="1245" d="M444 127L504 598L158 1391L39 1416L50 1522H660L645 1416L479 1391L670 877L711 739L778 862L1096 1391L943 1416L953 1522H1433L1420 1416L1304 1392L785 598L724 127L946 98L937 0H211L221
98L444 127ZM985 2008L1145 1852Q1121 1803 1059 1749T925 1652T802 1589L709 1666L985 2008Z" />
<glyph unicode="&#xde;" glyph-name="Thorn" horiz-adv-x="1276" d="M161 127L325 1395L185 1419L198 1526H789L777 1419L609 1395L583 1191Q709 1202 795 1202Q1056 1202 1165 1106T1274 840Q1274 703 1206 591T989 410T613 342Q529 342 473 346L445 127L619
98L611 0H9L19 97L161 127ZM490 472Q536 468 622 468Q731 468 811 506T936 620T980 800Q980 942 917 1009T711 1077Q638 1077 566 1061L490 472Z" />
<glyph unicode="&#xdf;" glyph-name="germandbls" horiz-adv-x="1216" d="M212 1206T311 1351T531 1540T800 1585Q901 1585 984 1552T1117 1453T1167 1297Q1167 1226 1143 1173T1084 1083T995 1002Q936 954 909 920T881 841Q881 808 905 768T992 648L1013 621Q1053
570 1077 532T1119 444T1137 335Q1137 232 1082 152T929 28T712 -16Q622 -16 557 -3T453 31L479 218Q495 197 528 173T603 133T682 116Q740 116 777 128T835 179T857 291Q857 385 771 523Q723 585 687 659T651 793Q651 838 664 871T697 930T757 999Q822 1065 857
1135T893 1287Q893 1366 855 1420T745 1474Q667 1474 610 1425T512 1255T445 922L326 0H54L174 927Q212 1206 311 1351Z" />
<glyph unicode="&#xe0;" glyph-name="agrave" horiz-adv-x="1197" d="M790 1163T850 1152T960 1124L1097 1163L967 209Q966 202 966 189Q966 161 976 147T1002 133Q1035 133 1093 179L1123 115Q1109 93 1074 62T984 5T868 -20Q796 -20 755 14T717 115L709 128Q649
63 572 22T404 -20Q234 -20 152 97T70 406Q70 589 149 764T381 1051T739 1163Q790 1163 850 1152ZM809 1017Q768 1031 712 1031Q589 1031 509 938T391 705T354 423Q354 288 391 214T499 140Q553 140 607 176T709 267L809 1017ZM509 1743L797 1311L710 1245Q668
1263 588 1323T433 1454T328 1579L509 1743Z" />
<glyph unicode="&#xe1;" glyph-name="aacute" horiz-adv-x="1197" d="M790 1163T850 1152T960 1124L1097 1163L967 209Q966 202 966 189Q966 161 976 147T1002 133Q1035 133 1093 179L1123 115Q1109 93 1074 62T984 5T868 -20Q796 -20 755 14T717 115L709 128Q649
63 572 22T404 -20Q234 -20 152 97T70 406Q70 589 149 764T381 1051T739 1163Q790 1163 850 1152ZM809 1017Q768 1031 712 1031Q589 1031 509 938T391 705T354 423Q354 288 391 214T499 140Q553 140 607 176T709 267L809 1017ZM951 1743L1121 1578Q1103 1544 1027
1470T863 1329T719 1240L634 1312L951 1743Z" />
<glyph unicode="&#xe2;" glyph-name="acircumflex" horiz-adv-x="1197" d="M790 1163T850 1152T960 1124L1097 1163L967 209Q966 202 966 189Q966 161 976 147T1002 133Q1035 133 1093 179L1123 115Q1109 93 1074 62T984 5T868 -20Q796 -20 755 14T717 115L709
128Q649 63 572 22T404 -20Q234 -20 152 97T70 406Q70 589 149 764T381 1051T739 1163Q790 1163 850 1152ZM809 1017Q768 1031 712 1031Q589 1031 509 938T391 705T354 423Q354 288 391 214T499 140Q553 140 607 176T709 267L809 1017ZM728 1661H906L1108 1292L1006
1234L791 1463L464 1235L379 1292L728 1661Z" />
<glyph unicode="&#xe3;" glyph-name="atilde" horiz-adv-x="1197" d="M790 1163T850 1152T960 1124L1097 1163L967 209Q966 202 966 189Q966 161 976 147T1002 133Q1035 133 1093 179L1123 115Q1109 93 1074 62T984 5T868 -20Q796 -20 755 14T717 115L709 128Q649
63 572 22T404 -20Q234 -20 152 97T70 406Q70 589 149 764T381 1051T739 1163Q790 1163 850 1152ZM809 1017Q768 1031 712 1031Q589 1031 509 938T391 705T354 423Q354 288 391 214T499 140Q553 140 607 176T709 267L809 1017ZM404 1541T445 1580T536 1643T636
1667Q689 1667 724 1646T800 1583Q832 1551 854 1536T905 1521Q939 1521 966 1536T1011 1570T1058 1626L1133 1512Q1116 1465 1077 1424T986 1357T882 1331Q838 1331 806 1342T754 1370T707 1414Q676 1446 652 1461T592 1477Q529 1477 447 1391L383 1498Q404 1541
445 1580Z" />
<glyph unicode="&#xe4;" glyph-name="adieresis" horiz-adv-x="1197" d="M790 1163T850 1152T960 1124L1097 1163L967 209Q966 202 966 189Q966 161 976 147T1002 133Q1035 133 1093 179L1123 115Q1109 93 1074 62T984 5T868 -20Q796 -20 755 14T717 115L709 128Q649
63 572 22T404 -20Q234 -20 152 97T70 406Q70 589 149 764T381 1051T739 1163Q790 1163 850 1152ZM809 1017Q768 1031 712 1031Q589 1031 509 938T391 705T354 423Q354 288 391 214T499 140Q553 140 607 176T709 267L809 1017ZM399 1550T419 1590T477 1655T562
1679Q602 1679 633 1660T682 1610T699 1544Q699 1494 679 1452T621 1385T530 1360Q495 1360 465 1380T417 1433T399 1502Q399 1550 419 1590ZM837 1550T857 1590T915 1655T1000 1679Q1041 1679 1072 1660T1120 1610T1137 1542Q1137 1492 1117 1451T1059 1385T968
1360Q933 1360 903 1380T855 1433T837 1502Q837 1550 857 1590Z" />
<glyph unicode="&#xe5;" glyph-name="aring" horiz-adv-x="1197" d="M790 1163T850 1152T960 1124L1097 1163L967 209Q966 202 966 189Q966 161 976 147T1002 133Q1035 133 1093 179L1123 115Q1109 93 1074 62T984 5T868 -20Q796 -20 755 14T717 115L709 128Q649
63 572 22T404 -20Q234 -20 152 97T70 406Q70 589 149 764T381 1051T739 1163Q790 1163 850 1152ZM809 1017Q768 1031 712 1031Q589 1031 509 938T391 705T354 423Q354 288 391 214T499 140Q553 140 607 176T709 267L809 1017ZM458 1597T514 1665T656 1765T828
1796Q915 1796 980 1769T1082 1688T1118 1563Q1118 1462 1066 1392T930 1288T754 1253Q614 1253 536 1316T458 1492Q458 1597 514 1665ZM949 1579T930 1611T879 1661T807 1679Q733 1679 681 1639T629 1513Q629 1474 649 1442T702 1390T773 1371Q850 1371 899 1409T949
1539Q949 1579 930 1611Z" />
<glyph unicode="&#xe6;" glyph-name="ae" horiz-adv-x="1728" d="M70 584T156 760T403 1050T779 1163Q824 1163 878 1154T980 1131L1081 1163L1069 1073Q1206 1163 1366 1163Q1468 1163 1535 1129T1633 1037T1665 904Q1665 758 1560 658T1308 509T1033 457Q1029
306 1072 224T1219 141Q1397 141 1544 293L1600 199Q1567 151 1504 101T1348 15T1148 -20Q986 -20 891 55T763 262Q695 147 596 64T382 -20Q218 -20 144 94T70 401Q70 584 156 760ZM1395 959T1370 996T1296 1034Q1216 1034 1160 961T1073 781T1035 573Q1108 577
1192 615T1336 723T1395 885Q1395 959 1370 996ZM793 1031T760 1031Q629 1031 537 937T400 702T354 423Q354 301 381 228T465 154Q538 154 611 229T745 402V406L723 383L823 1025Q793 1031 760 1031Z" />
<glyph unicode="&#xe7;" glyph-name="ccedilla" horiz-adv-x="925" d="M553 1010T490 945T388 758T350 478Q350 305 397 226T538 147Q618 147 675 176T798 268L851 175Q812 120 735 67T554 -9Q566 -43 573 -90T580 -182Q580 -324 506 -399T289 -475Q246 -475 192
-467T122 -447L148 -295Q161 -302 184 -306T232 -310Q318 -310 366 -255T415 -90Q415 -61 411 -19Q248 -8 158 112T67 448Q67 619 138 784T351 1056T688 1163Q748 1163 815 1152T928 1121L856 855Q854 857 827 859Q807 861 806 862Q749 929 706 969T627 1010Q553
1010 490 945Z" />
<glyph unicode="&#xe8;" glyph-name="egrave" horiz-adv-x="1067" d="M799 1164T868 1131T971 1039T1004 906Q1004 760 898 660T642 510T365 457Q362 368 382 295T448 179T564 136Q735 136 881 293L937 199Q904 150 842 99T690 11T493 -25Q350 -25 256 38T117
202T72 424Q72 625 154 794T379 1064T695 1164Q799 1164 868 1131ZM734 959T708 996T633 1034Q551 1034 494 961T407 782T367 573Q441 577 527 615T674 724T734 885Q734 959 708 996ZM441 1743L729 1311L642 1245Q600 1263 520 1323T365 1454T260 1579L441 1743Z"
/>
<glyph unicode="&#xe9;" glyph-name="eacute" horiz-adv-x="1067" d="M883 1743L1053 1578Q1035 1544 959 1470T795 1329T651 1240L566 1312L883 1743ZM799 1164T868 1131T971 1039T1004 906Q1004 760 898 660T642 510T365 457Q362 368 382 295T448 179T564 136Q735
136 881 293L937 199Q904 150 842 99T690 11T493 -25Q350 -25 256 38T117 202T72 424Q72 625 154 794T379 1064T695 1164Q799 1164 868 1131ZM734 959T708 996T633 1034Q551 1034 494 961T407 782T367 573Q441 577 527 615T674 724T734 885Q734 959 708 996Z" />
<glyph unicode="&#xea;" glyph-name="ecircumflex" horiz-adv-x="1067" d="M660 1661H838L1040 1292L938 1234L723 1463L396 1235L311 1292L660 1661ZM799 1164T868 1131T971 1039T1004 906Q1004 760 898 660T642 510T365 457Q362 368 382 295T448 179T564 136Q735
136 881 293L937 199Q904 150 842 99T690 11T493 -25Q350 -25 256 38T117 202T72 424Q72 625 154 794T379 1064T695 1164Q799 1164 868 1131ZM734 959T708 996T633 1034Q551 1034 494 961T407 782T367 573Q441 577 527 615T674 724T734 885Q734 959 708 996Z" />
<glyph unicode="&#xeb;" glyph-name="edieresis" horiz-adv-x="1067" d="M331 1550T351 1590T409 1655T494 1679Q534 1679 565 1660T614 1610T631 1544Q631 1494 611 1452T553 1385T462 1360Q427 1360 397 1380T349 1433T331 1502Q331 1550 351 1590ZM769 1550T789
1590T847 1655T932 1679Q973 1679 1004 1660T1052 1610T1069 1542Q1069 1492 1049 1451T991 1385T900 1360Q865 1360 835 1380T787 1433T769 1502Q769 1550 789 1590ZM799 1164T868 1131T971 1039T1004 906Q1004 760 898 660T642 510T365 457Q362 368 382 295T448
179T564 136Q735 136 881 293L937 199Q904 150 842 99T690 11T493 -25Q350 -25 256 38T117 202T72 424Q72 625 154 794T379 1064T695 1164Q799 1164 868 1131ZM734 959T708 996T633 1034Q551 1034 494 961T407 782T367 573Q441 577 527 615T674 724T734 885Q734
959 708 996Z" />
<glyph unicode="&#xec;" glyph-name="igrave" horiz-adv-x="658" d="M122 1026L138 1111L495 1163L548 1139L415 209Q413 189 413 181Q413 133 444 133Q461 133 483 145T543 189L572 124Q555 100 519 67T425 7T299 -20Q218 -20 175 11T132 103Q132 115 133 122Q147
236 190 534L251 968L122 1026ZM444 1743L732 1311L645 1245Q603 1263 523 1323T368 1454T263 1579L444 1743Z" />
<glyph unicode="&#xed;" glyph-name="iacute" horiz-adv-x="658" d="M630 1743L800 1578Q782 1544 706 1470T542 1329T398 1240L313 1312L630 1743ZM122 1026L138 1111L495 1163L548 1139L415 209Q413 189 413 181Q413 133 444 133Q461 133 483 145T543 189L572
124Q555 100 519 67T425 7T299 -20Q218 -20 175 11T132 103Q132 115 133 122Q147 236 190 534L251 968L122 1026Z" />
<glyph unicode="&#xee;" glyph-name="icircumflex" horiz-adv-x="658" d="M407 1661H585L787 1292L685 1234L470 1463L143 1235L58 1292L407 1661ZM122 1026L138 1111L495 1163L548 1139L415 209Q413 189 413 181Q413 133 444 133Q461 133 483 145T543 189L572
124Q555 100 519 67T425 7T299 -20Q218 -20 175 11T132 103Q132 115 133 122Q147 236 190 534L251 968L122 1026Z" />
<glyph unicode="&#xef;" glyph-name="idieresis" horiz-adv-x="658" d="M78 1550T98 1590T156 1655T241 1679Q281 1679 312 1660T361 1610T378 1544Q378 1494 358 1452T300 1385T209 1360Q174 1360 144 1380T96 1433T78 1502Q78 1550 98 1590ZM516 1550T536 1590T594
1655T679 1679Q720 1679 751 1660T799 1610T816 1542Q816 1492 796 1451T738 1385T647 1360Q612 1360 582 1380T534 1433T516 1502Q516 1550 536 1590ZM122 1026L138 1111L495 1163L548 1139L415 209Q413 189 413 181Q413 133 444 133Q461 133 483 145T543 189L572
124Q555 100 519 67T425 7T299 -20Q218 -20 175 11T132 103Q132 115 133 122Q147 236 190 534L251 968L122 1026Z" />
<glyph unicode="&#xf0;" glyph-name="eth" horiz-adv-x="1186" d="M560 1507Q439 1603 356 1626L405 1768Q462 1753 536 1718T682 1637Q723 1683 769 1740T830 1815L936 1719L792 1554Q955 1409 1035 1217T1115 811Q1115 574 1041 385T826 88T490 -20Q355 -20
260 48T118 222T71 445Q71 646 146 797T348 1029T627 1110Q700 1110 751 1095T835 1043Q819 1153 782 1242T665 1416L520 1251L411 1344L560 1507ZM818 589T825 650T832 736Q832 782 813 840T749 941T630 985Q538 985 476 896T383 673T353 405Q353 271 393 185T517
99Q590 99 652 159T755 322T813 551Q818 589 825 650Z" />
<glyph unicode="&#xf1;" glyph-name="ntilde" horiz-adv-x="1284" d="M133 1022L150 1111L466 1163L516 1139L499 932Q575 1037 676 1100T888 1163Q1006 1163 1071 1093T1136 861Q1136 810 1123 722T1086 505Q1078 457 1073 432Q1071 418 1062 364T1048 266T1043
192Q1043 133 1074 133Q1089 133 1108 143T1163 179L1192 115Q1177 93 1141 62T1049 5T925 -21Q833 -21 795 17T757 123Q757 160 765 215T782 324T795 396L804 443Q827 570 840 661T854 830Q854 893 844 926T814 971T760 983Q695 983 616 915T475 745L373 0H106L236
963L133 1022ZM393 1541T434 1580T525 1643T625 1667Q678 1667 713 1646T789 1583Q821 1551 843 1536T894 1521Q928 1521 955 1536T1000 1570T1047 1626L1122 1512Q1105 1465 1066 1424T975 1357T871 1331Q827 1331 795 1342T743 1370T696 1414Q665 1446 641 1461T581
1477Q518 1477 436 1391L372 1498Q393 1541 434 1580Z" />
<glyph unicode="&#xf2;" glyph-name="ograve" horiz-adv-x="1173" d="M885 1164T995 1040T1105 682Q1105 493 1028 331T812 72T495 -25Q284 -25 175 100T65 460Q65 649 141 810T357 1068T674 1164Q885 1164 995 1040ZM810 861T768 946T638 1031Q546 1031 483 947T389
732T358 465V435Q362 265 405 183T536 101Q629 101 690 187T781 406T810 678Q810 861 768 946ZM443 1743L731 1311L644 1245Q602 1263 522 1323T367 1454T262 1579L443 1743Z" />
<glyph unicode="&#xf3;" glyph-name="oacute" horiz-adv-x="1173" d="M885 1743L1055 1578Q1037 1544 961 1470T797 1329T653 1240L568 1312L885 1743ZM885 1164T995 1040T1105 682Q1105 493 1028 331T812 72T495 -25Q284 -25 175 100T65 460Q65 649 141 810T357
1068T674 1164Q885 1164 995 1040ZM810 861T768 946T638 1031Q546 1031 483 947T389 732T358 465V435Q362 265 405 183T536 101Q629 101 690 187T781 406T810 678Q810 861 768 946Z" />
<glyph unicode="&#xf4;" glyph-name="ocircumflex" horiz-adv-x="1173" d="M671 1661H849L1051 1292L949 1234L734 1463L407 1235L322 1292L671 1661ZM885 1164T995 1040T1105 682Q1105 493 1028 331T812 72T495 -25Q284 -25 175 100T65 460Q65 649 141 810T357
1068T674 1164Q885 1164 995 1040ZM810 861T768 946T638 1031Q546 1031 483 947T389 732T358 465V435Q362 265 405 183T536 101Q629 101 690 187T781 406T810 678Q810 861 768 946Z" />
<glyph unicode="&#xf5;" glyph-name="otilde" horiz-adv-x="1173" d="M885 1164T995 1040T1105 682Q1105 493 1028 331T812 72T495 -25Q284 -25 175 100T65 460Q65 649 141 810T357 1068T674 1164Q885 1164 995 1040ZM810 861T768 946T638 1031Q546 1031 483 947T389
732T358 465V435Q362 265 405 183T536 101Q629 101 690 187T781 406T810 678Q810 861 768 946ZM338 1541T379 1580T470 1643T570 1667Q623 1667 658 1646T734 1583Q766 1551 788 1536T839 1521Q873 1521 900 1536T945 1570T992 1626L1067 1512Q1050 1465 1011 1424T920
1357T816 1331Q772 1331 740 1342T688 1370T641 1414Q610 1446 586 1461T526 1477Q463 1477 381 1391L317 1498Q338 1541 379 1580Z" />
<glyph unicode="&#xf6;" glyph-name="odieresis" horiz-adv-x="1173" d="M342 1550T362 1590T420 1655T505 1679Q545 1679 576 1660T625 1610T642 1544Q642 1494 622 1452T564 1385T473 1360Q438 1360 408 1380T360 1433T342 1502Q342 1550 362 1590ZM780 1550T800
1590T858 1655T943 1679Q984 1679 1015 1660T1063 1610T1080 1542Q1080 1492 1060 1451T1002 1385T911 1360Q876 1360 846 1380T798 1433T780 1502Q780 1550 800 1590ZM885 1164T995 1040T1105 682Q1105 493 1028 331T812 72T495 -25Q284 -25 175 100T65 460Q65
649 141 810T357 1068T674 1164Q885 1164 995 1040ZM810 861T768 946T638 1031Q546 1031 483 947T389 732T358 465V435Q362 265 405 183T536 101Q629 101 690 187T781 406T810 678Q810 861 768 946Z" />
<glyph unicode="&#xf7;" glyph-name="divide" horiz-adv-x="1370" d="M615 1221T642 1263T712 1329T799 1353Q865 1353 900 1314T935 1217Q935 1159 907 1117T836 1053T746 1031Q710 1031 680 1048T633 1097T615 1168Q615 1221 642 1263ZM1183 863L1165 684H257L275
863H1183ZM759 516T794 477T829 381Q829 324 802 282T730 217T640 194Q605 194 575 211T528 260T510 331Q510 385 537 427T607 492T694 516Q759 516 794 477Z" />
<glyph unicode="&#xf8;" glyph-name="oslash" horiz-adv-x="1174" d="M781 1166T864 1133L974 1299L1064 1250L953 1081Q1028 1021 1066 921T1105 684Q1105 495 1028 333T812 74T495 -23Q377 -23 289 17L185 -136L94 -87L203 74Q135 136 100 234T65 462Q65 651
141 812T357 1070T674 1166Q781 1166 864 1133ZM752 973Q711 1033 638 1033Q546 1033 483 949T389 734T358 467V437Q360 360 368 307L752 973ZM810 786T795 860L405 185Q448 103 536 103Q629 103 690 189T781 408T810 680Q810 786 795 860Z" />
<glyph unicode="&#xf9;" glyph-name="ugrave" horiz-adv-x="1248" d="M229 962L116 1033L132 1122L465 1163L515 1139L446 589Q439 529 433 495Q422 416 417 369T412 284Q412 201 440 168T528 134Q588 134 647 170T752 262L872 1155H1140L1013 210Q1011 190 1011
184Q1011 134 1045 134Q1062 134 1082 145T1143 190L1172 125Q1160 104 1122 70T1028 8T907 -19Q831 -19 792 13T753 103Q753 114 757 140L753 146Q690 73 608 27T414 -20Q298 -20 219 43T138 244Q138 297 146 370T170 545L177 597L229 962ZM461 1743L749 1311L662
1245Q620 1263 540 1323T385 1454T280 1579L461 1743Z" />
<glyph unicode="&#xfa;" glyph-name="uacute" horiz-adv-x="1248" d="M903 1743L1073 1578Q1055 1544 979 1470T815 1329T671 1240L586 1312L903 1743ZM229 962L116 1033L132 1122L465 1163L515 1139L446 589Q439 529 433 495Q422 416 417 369T412 284Q412 201
440 168T528 134Q588 134 647 170T752 262L872 1155H1140L1013 210Q1011 190 1011 184Q1011 134 1045 134Q1062 134 1082 145T1143 190L1172 125Q1160 104 1122 70T1028 8T907 -19Q831 -19 792 13T753 103Q753 114 757 140L753 146Q690 73 608 27T414 -20Q298 -20
219 43T138 244Q138 297 146 370T170 545L177 597L229 962Z" />
<glyph unicode="&#xfb;" glyph-name="ucircumflex" horiz-adv-x="1248" d="M680 1661H858L1060 1292L958 1234L743 1463L416 1235L331 1292L680 1661ZM229 962L116 1033L132 1122L465 1163L515 1139L446 589Q439 529 433 495Q422 416 417 369T412 284Q412 201
440 168T528 134Q588 134 647 170T752 262L872 1155H1140L1013 210Q1011 190 1011 184Q1011 134 1045 134Q1062 134 1082 145T1143 190L1172 125Q1160 104 1122 70T1028 8T907 -19Q831 -19 792 13T753 103Q753 114 757 140L753 146Q690 73 608 27T414 -20Q298 -20
219 43T138 244Q138 297 146 370T170 545L177 597L229 962Z" />
<glyph unicode="&#xfc;" glyph-name="udieresis" horiz-adv-x="1248" d="M351 1550T371 1590T429 1655T514 1679Q554 1679 585 1660T634 1610T651 1544Q651 1494 631 1452T573 1385T482 1360Q447 1360 417 1380T369 1433T351 1502Q351 1550 371 1590ZM789 1550T809
1590T867 1655T952 1679Q993 1679 1024 1660T1072 1610T1089 1542Q1089 1492 1069 1451T1011 1385T920 1360Q885 1360 855 1380T807 1433T789 1502Q789 1550 809 1590ZM229 962L116 1033L132 1122L465 1163L515 1139L446 589Q439 529 433 495Q422 416 417 369T412
284Q412 201 440 168T528 134Q588 134 647 170T752 262L872 1155H1140L1013 210Q1011 190 1011 184Q1011 134 1045 134Q1062 134 1082 145T1143 190L1172 125Q1160 104 1122 70T1028 8T907 -19Q831 -19 792 13T753 103Q753 114 757 140L753 146Q690 73 608 27T414
-20Q298 -20 219 43T138 244Q138 297 146 370T170 545L177 597L229 962Z" />
<glyph unicode="&#xfd;" glyph-name="yacute" horiz-adv-x="1089" d="M141 974T132 987T106 1000Q92 1000 78 995T42 972L13 1042Q25 1060 61 1088T148 1140T255 1163Q334 1163 371 1129T419 1026Q429 968 449 824T478 614Q512 358 527 264L552 34L656 247L667
272Q723 396 755 477T808 648T830 825Q830 858 824 882T807 937Q796 968 791 989T785 1040Q785 1097 819 1130T916 1163Q993 1163 1034 1107T1075 964Q1075 867 1051 774T992 600T896 398L881 367Q795 187 690 10T507 -278Q360 -512 104 -512Q57 -512 -3 -500T-89
-475L-25 -293Q-2 -311 48 -327T154 -343Q242 -343 330 -277T499 -63H345L148 944Q141 974 132 987ZM824 1743L994 1578Q976 1544 900 1470T736 1329T592 1240L507 1312L824 1743Z" />
<glyph unicode="&#xfe;" glyph-name="thorn" horiz-adv-x="1196" d="M184 1527L205 1611L513 1650L566 1623L488 1036Q543 1092 616 1127T778 1163Q947 1163 1034 1048T1121 730Q1121 541 1040 368T808 88T458 -20Q407 -20 342 -8L331 -141L279 -520H21L92 -20L284
1484L184 1527ZM368 131Q412 111 486 111Q605 111 684 202T802 433T840 723Q840 849 800 925T685 1002Q623 1002 567 964T466 869L368 131Z" />
<glyph unicode="&#xff;" glyph-name="ydieresis" horiz-adv-x="1089" d="M141 974T132 987T106 1000Q92 1000 78 995T42 972L13 1042Q25 1060 61 1088T148 1140T255 1163Q334 1163 371 1129T419 1026Q429 968 449 824T478 614Q512 358 527 264L552 34L656 247L667
272Q723 396 755 477T808 648T830 825Q830 858 824 882T807 937Q796 968 791 989T785 1040Q785 1097 819 1130T916 1163Q993 1163 1034 1107T1075 964Q1075 867 1051 774T992 600T896 398L881 367Q795 187 690 10T507 -278Q360 -512 104 -512Q57 -512 -3 -500T-89
-475L-25 -293Q-2 -311 48 -327T154 -343Q242 -343 330 -277T499 -63H345L148 944Q141 974 132 987ZM272 1550T292 1590T350 1655T435 1679Q475 1679 506 1660T555 1610T572 1544Q572 1494 552 1452T494 1385T403 1360Q368 1360 338 1380T290 1433T272 1502Q272
1550 292 1590ZM710 1550T730 1590T788 1655T873 1679Q914 1679 945 1660T993 1610T1010 1542Q1010 1492 990 1451T932 1385T841 1360Q806 1360 776 1380T728 1433T710 1502Q710 1550 730 1590Z" />
<glyph unicode="&#x2013;" glyph-name="endash" horiz-adv-x="1544" d="M1374 862L1338 683H241L277 862H1374Z" />
<glyph unicode="&#x2014;" glyph-name="emdash" horiz-adv-x="2034" d="M1864 862L1831 683H241L273 862H1864Z" />
<glyph unicode="&#x2018;" glyph-name="quoteleft" horiz-adv-x="693" d="M197 1348T255 1451T404 1624T594 1736L649 1645L647 1623Q595 1606 548 1556T471 1437T442 1300Q442 1235 470 1190T546 1139L541 1098L384 926Q290 951 244 1033T197 1221Q197 1348 255 1451Z" />
<glyph unicode="&#x2019;" glyph-name="quoteright" horiz-adv-x="693" d="M661 1309T603 1206T454 1033T264 921L209 1012L211 1034Q263 1051 310 1101T387 1220T416 1357Q416 1422 388 1467T312 1518L317 1559L474 1731Q568 1706 614 1624T661 1436Q661 1309 603 1206Z" />
<glyph unicode="&#x201a;" glyph-name="quotesinglbase" horiz-adv-x="682" d="M492 -130T434 -233T285 -406T95 -518L40 -427L42 -405Q94 -388 141 -338T218 -219T247 -82Q247 -17 219 28T143 79L148 120L305 292Q399 267 445 185T492 -3Q492 -130 434 -233Z" />
<glyph unicode="&#x201c;" glyph-name="quotedblleft" horiz-adv-x="1172" d="M688 1348T746 1451T895 1624T1085 1736L1140 1645L1138 1623Q1086 1606 1039 1556T962 1437T933 1300Q933 1235 961 1190T1037 1139L1032 1098L875 926Q781 951 735 1033T688 1221Q688
1348 746 1451ZM198 1348T256 1451T405 1624T595 1736L650 1645L648 1623Q596 1606 549 1556T472 1437T443 1300Q443 1235 471 1190T547 1139L542 1098L385 926Q291 951 245 1033T198 1221Q198 1348 256 1451Z" />
<glyph unicode="&#x201d;" glyph-name="quotedblright" horiz-adv-x="1172" d="M670 1309T612 1206T463 1033T273 921L218 1012L220 1034Q272 1051 319 1101T396 1220T425 1357Q425 1422 397 1467T321 1518L326 1559L483 1731Q577 1706 623 1624T670 1436Q670
1309 612 1206ZM1160 1309T1102 1206T953 1033T763 921L708 1012L710 1034Q762 1051 809 1101T886 1220T915 1357Q915 1422 887 1467T811 1518L816 1559L973 1731Q1067 1706 1113 1624T1160 1436Q1160 1309 1102 1206Z" />
<glyph unicode="&#x201e;" glyph-name="quotedblbase" horiz-adv-x="1172" d="M482 -130T424 -233T275 -406T85 -518L30 -427L32 -405Q84 -388 131 -338T208 -219T237 -82Q237 -17 209 28T133 79L138 120L295 292Q389 267 435 185T482 -3Q482 -130 424 -233ZM961
-130T903 -233T754 -406T564 -518L509 -427L511 -405Q563 -388 610 -338T687 -219T716 -82Q716 -17 688 28T612 79L617 120L774 292Q868 267 914 185T961 -3Q961 -130 903 -233Z" />
<glyph unicode="&#x2022;" glyph-name="bullet" horiz-adv-x="858" d="M206 771T239 833T334 933T476 971Q530 971 576 944T648 872T675 773Q675 701 644 638T551 537T405 498Q351 498 306 526T233 601T206 700Q206 771 239 833Z" />
<glyph unicode="&#x2039;" glyph-name="guilsinglleft" horiz-adv-x="1190" d="M962 1092L1011 943L529 609L920 281L834 146L225 530L247 690L962 1092Z" />
<glyph unicode="&#x203a;" glyph-name="guilsinglright" horiz-adv-x="1190" d="M159 146L110 295L592 629L201 957L287 1092L896 708L874 548L159 146Z" />
</font>
</defs>
</svg>
